<?xml version="1.0" standalone="no"?>
<!DOCTYPE svg PUBLIC "-//W3C//DTD SVG 1.1//EN" "http://www.w3.org/Graphics/SVG/1.1/DTD/svg11.dtd" >
<svg xmlns="http://www.w3.org/2000/svg">
<metadata>
This is a custom SVG webfont generated by Font Squirrel.
Copyright   : Copyright c 2011 Dario Manuel Muhafara httpwwwtiponetar with Reserved Font Name Overlock
Designer    : Dario Muhafara
Foundry     : Dario Manuel Muhafara
Foundry URL : wwwtiponetar
</metadata>
<defs>
<font id="OverlockBold" horiz-adv-x="1095" >
<font-face units-per-em="2048" ascent="1638" descent="-410" />
<missing-glyph horiz-adv-x="440" />
<glyph unicode=" "  horiz-adv-x="440" />
<glyph unicode="&#x09;" horiz-adv-x="440" />
<glyph unicode="&#xa0;" horiz-adv-x="440" />
<glyph unicode="!" horiz-adv-x="630" d="M174 1405q90 16 141 16q127 0 127 -112q-2 -78 -18 -243t-16 -278q0 -229 30 -311q-59 -27 -106 -26q-115 0 -117 102q-2 63 -3 219t-3 251t-10.5 208t-24.5 174zM178 124.5q0 61.5 45 103.5t105 42q61 0 104 -41t43 -104q0 -61 -45 -103t-106 -42q-59 0 -102.5 41.5 t-43.5 103z" />
<glyph unicode="&#x22;" horiz-adv-x="808" d="M86 1423q0 39 38 61.5t93 22.5q49 0 83 -23.5t34 -74.5q0 -90 -39 -352q-20 -92 -111 -92q-33 0 -75 12q6 37 6 86q0 127 -14.5 233.5t-14.5 126.5zM492 1423q0 39 37.5 61.5t93.5 22.5q49 0 82.5 -23.5t33.5 -74.5q0 -90 -39 -352q-20 -92 -110 -92q-33 0 -76 12 q6 37 6 86q0 127 -14 233.5t-14 126.5z" />
<glyph unicode="#" d="M-6 461q0 96 162 96h133l33 240q-135 -8 -259 -45q-16 57 -16 92q0 94 160 94l131 -2q31 328 31 332q31 8 63 8q80 0 80 -78q0 -55 -43 -262h236q0 8 15 147.5t17 184.5q27 8 60 8q84 0 84 -78q0 -35 -43 -258q121 2 266 12q6 -27 6 -63q0 -104 -102 -105q-63 0 -197 11 l-35 -240q152 6 273 16q4 -37 4 -71q0 -96 -105 -97q-80 0 -192 11q-16 -197 -17 -209q0 -74 6 -125q-43 -23 -77 -23q-72 0 -72 80q0 66 37 283h-244q-18 -203 -18 -207q0 -70 6 -133q-41 -23 -78 -23q-72 0 -72 80q0 41 37 279q-125 -6 -256 -45q-14 51 -14 90zM408 553 h247l33 248h-242z" />
<glyph unicode="$" d="M72 186q0 84 118 140q35 -70 117 -120t174 -63v426q-82 25 -138 50.5t-115.5 72.5t-90.5 123t-31 180q0 158 103.5 254.5t269.5 120.5q-4 113 -8 137q31 6 47 6q76 0 76 -55v-80q137 -4 256 -58t119 -144q0 -106 -140 -136q-27 66 -92 114t-143 63v-420q76 -20 118 -34.5 t105.5 -45.5t97 -67t59 -94t25.5 -134q0 -207 -112.5 -312.5t-290.5 -123.5q4 -109 8 -142l-41 -4q-82 0 -82 56v84q-164 4 -286.5 64t-122.5 142zM295 1018q0 -72 48 -115t138 -72v386q-84 -12 -135 -62.5t-51 -136.5zM594 145q96 12 156.5 65.5t60.5 149.5q0 72 -55.5 110 t-161.5 67v-392z" />
<glyph unicode="%" horiz-adv-x="1677" d="M86 1016q0 160 86 253t234 93q145 0 231 -93t86 -253t-86 -254t-231 -94q-147 0 -233.5 94t-86.5 254zM281 1036q0 -92 31.5 -164.5t90.5 -72.5q55 0 88 57t33 145q0 90 -31.5 161t-87 71t-90 -56.5t-34.5 -140.5zM338 14q0 25 16 49l602 955q135 213 244 407 q143 -10 143 -86q0 -23 -14 -45l-600 -954q-137 -217 -244 -408q-147 23 -147 82zM954 327.5q0 159.5 86 253t234 93.5q145 0 231 -93.5t86 -253t-86 -253.5t-231 -94q-147 0 -233.5 94t-86.5 253.5zM1149 348q0 -92 31.5 -164.5t91.5 -72.5q55 0 88 57t33 145q0 90 -32 161 t-87 71t-90 -56.5t-35 -140.5z" />
<glyph unicode="&#x26;" horiz-adv-x="1292" d="M86 346q0 123 59.5 207t163.5 158q-47 70 -98 155q-49 82 -49 195q0 145 105.5 231t269.5 86q150 0 233.5 -76.5t83.5 -183.5q0 -76 -26.5 -140.5t-83 -119.5t-94.5 -84t-107 -76q137 -199 311 -354q14 61 14 115q0 88 -18 127q49 25 96 24q125 0 125 -121 q0 -147 -65 -262q127 -82 229 -82q4 -25 4 -51q0 -49 -44 -81.5t-138 -32.5q-82 0 -203 88q-137 -88 -309 -88q-186 0 -322.5 97t-136.5 269zM303 375q0 -113 75 -180.5t195 -67.5q90 0 162 47q-156 158 -338 410q-94 -98 -94 -209zM358 1079q0 -88 109 -266 q92 61 140 120.5t48 139.5q0 70 -34.5 120t-106.5 50q-156 0 -156 -164z" />
<glyph unicode="'" horiz-adv-x="534" d="M102 1423q0 39 38 61.5t93 22.5q49 0 83 -23.5t34 -74.5q0 -90 -39 -352q-20 -92 -110 -92q-33 0 -76 12q6 37 6 86q0 127 -14.5 233.5t-14.5 126.5z" />
<glyph unicode="(" horiz-adv-x="720" d="M156 551q0 170 45 348t107.5 306t128 210t108.5 82q57 0 100 -61q-125 -139 -200.5 -389t-75.5 -496q0 -270 78.5 -512t197.5 -381q-43 -61 -100 -61q-43 0 -107.5 79.5t-128 205.5t-108.5 308.5t-45 360.5z" />
<glyph unicode=")" horiz-adv-x="698" d="M51 -354q125 139 201 394t76 503q0 270 -79 511.5t-198 381.5q43 61 101 61q43 0 107.5 -80t128 -206t108.5 -308t45 -360q0 -170 -45 -350.5t-107.5 -310.5t-128 -214t-108.5 -84q-58 1 -101 62z" />
<glyph unicode="*" horiz-adv-x="862" d="M61 1214q8 55 43 100.5t86 45.5q33 0 82.5 -26.5t83.5 -63.5q-27 166 -41 233q63 18 101 19q127 0 127 -95q0 -49 -29 -163q133 94 180 141q90 -78 90 -135q0 -88 -252 -152q84 -78 224 -182q-23 -41 -62 -69.5t-84 -28.5q-49 0 -88 48t-94 152q-10 -18 -59.5 -107 t-73.5 -128q-59 20 -105.5 56t-46.5 75q0 57 183 190q-202 72 -265 90z" />
<glyph unicode="+" d="M76 508q0 39 25.5 69.5t80.5 30.5q45 0 130 -7t145 -7q0 217 -19 377q43 14 97 14q51 0 84.5 -24.5t33.5 -63.5q0 -41 -7 -155.5t-7 -149.5q213 0 369 20q12 -35 12 -80q0 -41 -29.5 -70.5t-77.5 -29.5q-39 0 -143 7t-133 7q0 -209 18 -389q-59 -12 -96 -12 q-47 0 -83 22.5t-36 67.5q0 49 7.5 149.5t7.5 164.5q-190 -2 -371 -19q-8 41 -8 78z" />
<glyph unicode="," horiz-adv-x="497" d="M47 -238q0 20 2 31h10q66 0 109 45t43 103q0 92 -100 110q-20 39 -21 78q0 49 43 83t105 34q66 0 112.5 -49.5t46.5 -151.5q0 -135 -85 -247.5t-201 -112.5q-64 -1 -64 77z" />
<glyph unicode="-" horiz-adv-x="532" d="M51 526q0 39 25.5 67t81.5 28q14 0 71.5 -4.5t98.5 -4.5q98 0 180 21q14 -43 14 -82q0 -43 -28.5 -68.5t-77.5 -25.5q-23 0 -74 5t-86 5q-90 0 -195 -23q-10 49 -10 82z" />
<glyph unicode="." horiz-adv-x="487" d="M86 125q0 61 45 103t107 42q59 0 102 -42t43 -103.5t-45 -103t-105 -41.5q-61 0 -104 41t-43 104z" />
<glyph unicode="/" horiz-adv-x="538" d="M74 -184q0 4 4 27.5t17.5 106.5t31.5 199.5t57 357.5t84 529q39 236 64 473q31 10 63 11q84 0 84 -58q0 -8 -33 -211q-76 -473 -159 -1013q-53 -330 -64 -474q-35 -6 -67 -6q-82 1 -82 58z" />
<glyph unicode="0" d="M51 678q0 322 137.5 511t368.5 189t369.5 -189.5t138.5 -510.5q0 -317 -138.5 -507.5t-369.5 -190.5t-368.5 189.5t-137.5 508.5zM272 737q0 -152 30 -286t96.5 -227t158.5 -93q129 0 208 147.5t79 366.5q0 141 -30 269t-97.5 220.5t-157.5 92.5q-125 0 -206 -142.5 t-81 -347.5z" />
<glyph unicode="1" d="M233 1233q0 96 80 110q221 35 303 35q35 0 63 -22.5t28 -73.5q0 -4 -8.5 -247.5t-8.5 -430.5q0 -340 15 -465q145 0 204 8q8 -29 9 -55q0 -96 -80 -96q-14 0 -136 2t-213 2q-176 0 -239 -2q-10 37 -10 61q0 86 118 86h131q0 37 2.5 217.5t2.5 329.5q0 289 -7 516 q-217 -25 -247 -30q-7 30 -7 55z" />
<glyph unicode="2" d="M80 96q0 20 2 29q385 344 520 515t135 325q0 119 -68.5 188.5t-166.5 69.5q-80 0 -159 -48.5t-130 -125.5q-47 6 -73.5 33.5t-26.5 66.5q0 80 135 154.5t291 74.5q168 0 289.5 -98t121.5 -276q0 -113 -39 -214.5t-131 -209t-187 -195.5t-265 -227q39 -2 159 -2 q209 0 306.5 10t193.5 47q29 -61 29 -104q0 -63 -51 -84q-80 -29 -340 -29q-317 0 -447 4q-98 0 -98 96z" />
<glyph unicode="3" d="M113 113q0 41 26.5 67.5t69.5 32.5q63 -82 223 -82q139 0 216 79t77 181q0 109 -93 186.5t-259 77.5q-23 0 -34 2t-22.5 10.5t-15.5 27t-4 48.5q0 20 2 35q190 0 286.5 74t96.5 174q0 80 -53.5 139.5t-141.5 59.5q-68 0 -134 -41t-105 -119q-47 0 -77 29.5t-30 70.5 q0 70 119 141.5t266 71.5q178 0 277.5 -93t99.5 -222q0 -98 -57.5 -184t-175.5 -134q162 -61 219 -147t57 -209q0 -166 -135 -287.5t-373 -121.5q-145 0 -235 36t-90 97z" />
<glyph unicode="4" d="M76 518q0 31 4 64q88 152 290.5 422t293.5 350q39 25 143 24q29 0 78 -4q0 -6 -4 -88t-9.5 -226.5t-5.5 -299.5v-178q152 12 201 34q16 -45 16 -94q0 -72 -41 -88q-49 -20 -178 -22q0 -291 43 -416q-45 -16 -110 -16q-76 0 -103.5 26.5t-27.5 89.5q0 80 4 314 q-432 0 -547 14q-47 6 -47 94zM285 575q88 -6 186 -6q102 0 199 6q0 219 4 543q-196 -240 -389 -543z" />
<glyph unicode="5" d="M117 113q0 82 96 100q63 -82 215 -82q145 0 226 92t81 215q0 127 -94 218.5t-258 91.5q-84 0 -162 -11q-20 20 -20 99q0 31 26 524q63 -4 432 -4q154 0 242 16q20 -37 21 -86q0 -111 -156 -110q-160 0 -375 12l-29 -307q76 12 144 12q221 0 335.5 -118t114.5 -308 q0 -209 -136 -348t-374 -139q-158 0 -243.5 38t-85.5 95z" />
<glyph unicode="6" d="M111 563q0 207 76.5 389.5t238.5 304t375 121.5q90 0 90 -90q0 -18 -10 -74q-41 8 -88 9q-199 0 -322 -159t-137 -384q125 141 307 141q152 0 259.5 -107.5t107.5 -283.5t-123 -313t-328 -137q-125 0 -216 49t-139 135t-69.5 184t-21.5 215zM332 547q2 -86 13 -152.5 t36 -130t74 -97.5t118 -34q100 0 156.5 78t56.5 186q0 123 -62 197t-159 74q-120 0 -233 -121z" />
<glyph unicode="7" d="M92 1286q0 35 21 86q102 -16 235 -16q530 0 639 4q16 -33 17 -76q0 -41 -13 -78q-37 -109 -219 -466t-328 -619q-78 -141 -165 -141q-82 0 -158 86q166 174 361.5 520t293.5 598q-295 -8 -528 -8q-156 -1 -156 110z" />
<glyph unicode="8" d="M96 362q0 240 275 373q-221 139 -221 340q0 135 117.5 220t283.5 85t284.5 -85t118.5 -220q0 -203 -225 -307q281 -145 281 -406q0 -158 -119 -271.5t-338 -113.5t-338 113.5t-119 271.5zM311 360q0 -92 65.5 -160.5t174 -68.5t173 68.5t64.5 160.5q0 109 -65.5 174.5 t-218.5 135.5q-104 -63 -148.5 -130t-44.5 -180zM358 1075q0 -88 55.5 -148.5t164.5 -111.5q168 80 167 260q0 66 -57 109t-137 43t-136.5 -43t-56.5 -109z" />
<glyph unicode="9" d="M94 928q0 176 123 313t328 137q125 0 216 -49t139 -135t69.5 -184.5t21.5 -214.5q0 -207 -76.5 -389.5t-238.5 -304t-375 -121.5q-90 0 -90 90q0 16 10 73q41 -8 88 -8q199 0 322 159t137 384q-125 -141 -307 -141q-152 0 -259.5 107.5t-107.5 283.5zM315 961 q0 -123 62.5 -197t159.5 -74q121 0 233 121q-2 86 -13.5 152.5t-36 130t-73.5 97.5t-119 34q-100 0 -156.5 -77.5t-56.5 -186.5z" />
<glyph unicode=":" horiz-adv-x="487" d="M86 135q0 66 44 112t105.5 46t104.5 -46t43 -112q0 -68 -43 -111.5t-104 -43.5q-63 0 -106.5 43.5t-43.5 111.5zM86 836q0 66 44 111.5t105.5 45.5t104.5 -46t43 -111q0 -68 -43 -112t-104 -44q-63 0 -106.5 44t-43.5 112z" />
<glyph unicode=";" horiz-adv-x="530" d="M47 -238q0 20 2 31h10q66 0 109 45t43 103q0 92 -100 110q-20 39 -21 78q0 49 43 83t105 34q66 0 112.5 -49.5t46.5 -151.5q0 -135 -85 -247.5t-201 -112.5q-64 -1 -64 77zM98 836q0 66 44 111.5t105.5 45.5t104.5 -46t43 -111q0 -68 -43 -112t-104 -44q-63 0 -106.5 44 t-43.5 112z" />
<glyph unicode="&#x3c;" d="M195 518l452 432q27 27 72 27q43 0 80 -25.5t51 -58.5l-432 -375l432 -397q-16 -35 -54 -59.5t-77 -24.5q-47 0 -74 24z" />
<glyph unicode="=" d="M121 307q0 39 25.5 70t80.5 31q23 0 135.5 -7.5t188.5 -7.5q262 0 412 19q12 -37 12 -80t-30 -72t-77 -29q-61 0 -164.5 8.5t-148.5 8.5q-203 0 -424 -21q-10 49 -10 80zM121 709q0 39 25.5 69.5t80.5 30.5q23 0 135.5 -7t188.5 -7q262 0 412 18q12 -37 12 -80t-30 -71.5 t-77 -28.5q-61 0 -164.5 8t-148.5 8q-203 0 -424 -20q-10 49 -10 80z" />
<glyph unicode="&#x3e;" d="M225 121l432 397l-432 375q16 33 53 58.5t80 25.5t74 -27l451 -432l-451 -457q-27 -25 -74 -24q-41 0 -78 23.5t-55 60.5z" />
<glyph unicode="?" horiz-adv-x="817" d="M70 1210q0 86 98 138.5t233 52.5q164 0 272.5 -73t108.5 -208q0 -78 -31.5 -146.5t-63.5 -104t-89 -87.5q-41 -37 -61.5 -59.5t-42 -64.5t-21.5 -83q0 -45 23 -112q-57 -35 -111 -35q-125 0 -125 135q0 55 26.5 110.5t52.5 85t79 87.5q49 51 73.5 81.5t49 84t24.5 110.5 q0 68 -36.5 101.5t-98.5 33.5q-68 0 -128 -43t-79 -112q-153 24 -153 108zM246 125q0 61 45 103t106 42q59 0 102.5 -42t43.5 -103.5t-45 -103t-105 -41.5q-61 0 -104 41t-43 104z" />
<glyph unicode="@" horiz-adv-x="1751" d="M156 369q0 150 58 297t163.5 269t268.5 197.5t355 75.5q270 0 431 -146.5t161 -371.5q0 -223 -139 -386t-287 -163q-137 0 -178 158q-109 -188 -264 -188q-102 0 -169 75.5t-67 214.5q0 209 115 357.5t283 148.5q190 0 327 -94q-76 -285 -75 -436q0 -106 65 -107 q68 0 129.5 100.5t61.5 268.5q0 203 -106.5 314.5t-327.5 111.5q-180 0 -323.5 -106.5t-215.5 -261t-72 -316.5q0 -193 118 -321t347 -128q211 0 272 129q119 -39 119 -104q0 -80 -116.5 -130t-290.5 -50q-315 0 -479 170t-164 422zM688 453q0 -82 24.5 -134.5t67.5 -52.5 q78 0 164 144q8 47 20.5 156.5t16.5 138.5q-53 51 -115 51q-78 0 -128 -83t-50 -220z" />
<glyph unicode="A" horiz-adv-x="1173" d="M8 41q0 29 87 232.5t212 519t197 559.5q41 6 106 6q53 0 83 -21.5t52 -87.5q158 -492 230 -676q154 -399 231 -553q-78 -41 -131 -40q-86 0 -119 55q-25 63 -68.5 187t-68.5 190q-201 -4 -244 -4q-53 0 -221 4q-133 -342 -164 -455q-182 21 -182 84zM418 563 q131 -4 200 -4q106 0 148 2q-31 84 -60.5 175t-62.5 195.5t-45 143.5q-98 -309 -180 -512z" />
<glyph unicode="B" horiz-adv-x="1126" d="M121 109q33 233 33 684q0 381 -27 561q158 25 342 24q233 0 381.5 -82t148.5 -270q0 -205 -178 -285q227 -96 228 -350q0 -195 -132.5 -303t-322.5 -108q-309 0 -473 129zM338 211q33 -31 95.5 -52.5t119.5 -21.5q111 0 186.5 68.5t75.5 187.5q0 133 -83 203t-206 70 q-111 0 -161 -11q0 -88 -9.5 -241.5t-17.5 -202.5zM358 1212q8 -156 9 -415q53 -4 92 -4q307 0 307 211q0 217 -295 217q-39 -1 -113 -9z" />
<glyph unicode="C" horiz-adv-x="1247" d="M86 680q0 328 181.5 513t490.5 185q166 0 278.5 -64.5t112.5 -158.5q0 -49 -40 -86t-122 -49q-31 96 -109.5 146.5t-164.5 50.5q-174 0 -284 -141.5t-110 -356.5q0 -248 112 -413t314 -165q92 0 178.5 44t135.5 132q45 -23 77.5 -58.5t32.5 -74.5q0 -84 -119.5 -144 t-301.5 -60q-299 0 -480.5 193.5t-181.5 506.5z" />
<glyph unicode="D" horiz-adv-x="1306" d="M115 109q29 186 32 688q0 358 -26 557q129 25 330 24q166 0 298 -34.5t241.5 -111.5t170 -216t60.5 -334q0 -307 -170 -504.5t-486 -197.5q-290 0 -450 129zM332 215q98 -72 243 -72q115 0 199 46.5t128 123t64.5 159.5t20.5 173q0 287 -134 431.5t-384 144.5 q-39 0 -117 -9q8 -133 8 -313q1 -424 -28 -684z" />
<glyph unicode="E" horiz-adv-x="1005" d="M115 1346q223 18 456 18q303 0 342 -31q18 -18 19 -65q0 -61 -17 -111q-113 43 -356 43q-98 0 -209 -6q8 -80 8 -383h154q164 0 233 8q8 -18 9 -65q0 -57 -20.5 -79t-65.5 -24q-51 -2 -138 -2h-172q0 -408 15 -489q86 -4 141 -4q328 0 424 45q16 -47 16 -109 q0 -47 -18 -65q-39 -31 -350 -31q-279 0 -340 4q-63 2 -85 27.5t-22 89.5q0 39 2 168t2 198v398q1 287 -28 465z" />
<glyph unicode="F" horiz-adv-x="931" d="M115 1346q223 18 456 18q303 0 342 -31q18 -18 19 -65q0 -61 -17 -111q-113 43 -356 43q-98 0 -209 -6q8 -63 8 -274v-132h154q164 0 233 9q8 -18 9 -66q0 -57 -20.5 -78.5t-65.5 -23.5q-51 -2 -138 -2h-172v-226q0 -272 39 -401q-57 -20 -127 -20q-76 0 -103.5 26.5 t-27.5 89.5q0 33 2 162t2 201v426q1 283 -28 461z" />
<glyph unicode="G" horiz-adv-x="1271" d="M86 680q0 328 181.5 513t490.5 185q166 0 278.5 -64.5t112.5 -158.5q0 -109 -162 -135q-35 98 -110.5 147.5t-161.5 49.5q-174 0 -285 -142.5t-111 -355.5q0 -248 109 -413t301 -165q141 0 232 66q-4 262 -15 430q47 6 101 6q137 0 137 -76l-8 -139q-6 -139 -7 -254 q0 -74 -121.5 -134t-299.5 -60q-299 0 -480.5 193.5t-181.5 506.5z" />
<glyph unicode="H" horiz-adv-x="1286" d="M115 1354q61 10 108 10q137 0 137 -78q0 -12 -4 -87t-8 -183.5t-4 -202.5q111 -2 291 -2t283 2v70q0 285 -15 471q61 10 109 10q137 0 137 -78q0 -12 -4 -82.5t-8 -176t-4 -200.5v-411q0 -272 38 -402q-57 -20 -127 -20q-76 0 -103.5 26.5t-27.5 90.5q0 33 2.5 161.5 t2.5 200.5v189q-104 -2 -289 -3q-180 0 -285 3v-246q0 -272 39 -402q-57 -20 -127 -20q-76 0 -103.5 26.5t-27.5 90.5q0 33 2 161.5t2 200.5v410q0 285 -14 471z" />
<glyph unicode="I" horiz-adv-x="497" d="M115 1354q61 10 108 10q137 0 137 -78q0 -12 -4 -82.5t-8 -176t-4 -200.5v-411q0 -272 39 -402q-57 -20 -127 -20q-76 0 -103.5 26.5t-27.5 90.5q0 33 2 161.5t2 200.5v410q0 285 -14 471z" />
<glyph unicode="J" horiz-adv-x="497" d="M-66 -84q63 14 103.5 33.5t64 41t34.5 63.5t13.5 79t2.5 109v641q0 285 -15 471q61 10 113 10q133 0 133 -78q0 -10 -4 -75.5t-8 -163t-4 -185.5v-635q0 -131 -37 -229t-94.5 -147.5t-110.5 -72t-100 -22.5q-91 0 -91 160z" />
<glyph unicode="K" horiz-adv-x="1075" d="M115 1354q61 10 108 10q137 0 137 -78q0 -10 -4 -72.5t-8 -171t-4 -229.5q141 109 297 270.5t215 278.5q59 -18 90 -41t31 -66q0 -31 -32 -79t-110.5 -125.5t-135 -130t-179.5 -162.5q27 -47 76 -134t74.5 -132.5t67.5 -113t70 -101t62.5 -71.5t66.5 -53.5t64 -15.5 q31 0 56 6q18 -37 18 -65q0 -47 -42 -72.5t-113 -25.5q-96 0 -184.5 82.5t-148 179t-198.5 356.5q-14 25 -20 37l-25 -19v-200q0 -272 39 -402q-57 -20 -127 -20q-76 0 -103.5 26.5t-27.5 90.5q0 33 2 161.5t2 200.5v410q0 285 -14 471z" />
<glyph unicode="L" horiz-adv-x="901" d="M115 1358q47 6 112 6q133 0 133 -78q0 -12 -4 -82.5t-8 -176t-4 -200.5v-176q0 -406 14 -491q82 -4 131 -4q301 0 390 47q23 -45 22 -101q0 -68 -52 -87t-173 -19h-178q-182 0 -273 4q-57 2 -78.5 28.5t-21.5 88.5q0 33 2 151.5t2 190.5v424q0 289 -14 475z" />
<glyph unicode="M" horiz-adv-x="1622" d="M115 1350q82 16 145 16q117 0 178 -98q78 -125 153 -312.5t114.5 -316.5t111.5 -371q172 647 381 1004q53 94 174 94q80 0 133 -16q-37 -123 -37 -457v-477q0 -276 39 -406q-29 -16 -110 -16q-84 0 -113 26.5t-29 90.5v921q-135 -336 -344 -1028q-33 -8 -75 -8 q-106 0 -131 53q-61 135 -182.5 484.5t-182.5 502.5v-620q0 -276 39 -406q-55 -16 -107 -16q-72 0 -97 26.5t-25 90.5q0 33 2 161.5t2 200.5v516q0 230 -39 361z" />
<glyph unicode="N" horiz-adv-x="1265" d="M115 1350q51 16 125 16q94 0 147 -59q94 -104 282.5 -414.5t293.5 -527.5q-16 233 -17 495q0 305 -14 498q47 6 84 6q135 0 135 -78q0 -12 -4 -82.5t-9 -176t-5 -200.5v-350q0 -289 14 -475q-41 -8 -90 -8q-102 0 -137 55q-96 156 -294 502t-298 508q10 -285 10 -535 q6 -414 41 -514q-45 -16 -98 -16q-76 0 -103.5 26.5t-27.5 90.5q0 33 2 161.5t2 200.5v410q0 342 -39 467z" />
<glyph unicode="O" horiz-adv-x="1466" d="M86 678q0 322 175 511t470 189q299 0 475 -189.5t176 -510.5q0 -317 -177 -507.5t-474 -190.5q-295 0 -470 190.5t-175 507.5zM319 737q0 -154 38 -282.5t135.5 -221t240.5 -92.5q199 0 307.5 139.5t108.5 362.5q0 147 -38 271t-135 213.5t-241 89.5q-190 0 -303 -134.5 t-113 -345.5z" />
<glyph unicode="P" horiz-adv-x="1044" d="M115 1354q158 25 319 24q575 0 576 -452q0 -219 -124 -334t-292 -115q-137 0 -238 66v-142q0 -266 39 -391q-49 -16 -125 -16q-80 0 -106.5 26.5t-26.5 90.5q0 33 2 161.5t2 200.5v410q1 283 -26 471zM348 1212q8 -111 8 -381v-157q68 -35 172 -35q117 0 182.5 74.5 t65.5 201.5q0 174 -73.5 240t-229.5 66q-43 -1 -125 -9z" />
<glyph unicode="Q" horiz-adv-x="1458" d="M86 678q0 324 172 512t471 188t472 -188.5t173 -511.5q0 -299 -152.5 -485.5t-412.5 -208.5q23 -82 85 -131.5t140 -49.5q61 0 122 35t99 80q76 -61 76 -145q0 -74 -75.5 -112t-200.5 -38q-68 0 -130.5 18.5t-122 57.5t-103.5 111.5t-62 171.5q-256 29 -403.5 213 t-147.5 483zM315 737q0 -154 38 -282.5t135.5 -221t240.5 -92.5q199 0 307.5 139.5t108.5 362.5q0 147 -38 271t-135.5 213.5t-240.5 89.5q-190 0 -303 -134.5t-113 -345.5z" />
<glyph unicode="R" horiz-adv-x="1103" d="M115 1354q158 25 321 24q575 0 576 -415q0 -158 -85 -261.5t-225 -140.5q133 -285 220 -366q47 -57 108 -58q23 0 47 6q18 -43 19 -71q0 -47 -50.5 -69.5t-121.5 -22.5q-119 0 -211 116q-63 80 -133 220.5t-109 244.5q-47 18 -47 66q0 39 16 80q33 -8 76 -9 q111 0 185.5 66.5t74.5 198.5q0 145 -71.5 201.5t-223.5 56.5q-55 0 -133 -9q8 -115 8 -407v-399q0 -270 39 -396q-45 -16 -127 -16q-76 0 -103.5 26.5t-27.5 90.5q0 33 2 161.5t2 200.5v410q1 283 -26 471z" />
<glyph unicode="S" horiz-adv-x="1083" d="M78 186q0 84 119 140q41 -78 141 -131.5t203 -53.5q119 0 197.5 54.5t78.5 164.5q0 66 -52 111t-130 67.5t-170 56.5t-170 74t-130 124t-52 202q0 182 137 282.5t340 100.5q86 0 172 -21.5t149.5 -69.5t63.5 -111q0 -106 -139 -136q-31 78 -115 129.5t-174 51.5 q-104 0 -175 -51.5t-71 -151.5q0 -61 39 -103.5t101.5 -66t137 -44t149.5 -47t137.5 -63.5t101.5 -106.5t39 -165.5q0 -121 -41 -210t-114 -138t-157 -71.5t-182 -22.5q-170 0 -302 61t-132 145z" />
<glyph unicode="T" horiz-adv-x="993" d="M0 1255q0 55 21.5 75t68.5 22q51 2 240 2h241q344 0 416 6q6 -25 6 -72q0 -55 -21.5 -74.5t-68.5 -21.5q-57 -2 -285 -2q-10 -219 -10 -363v-411q0 -272 39 -402q-57 -20 -127 -20q-76 0 -103.5 26.5t-27.5 90.5q0 33 2 161.5t2 200.5v410q0 115 -4 307q-291 0 -383 -8 q-6 24 -6 73z" />
<glyph unicode="U" horiz-adv-x="1316" d="M125 1348q53 16 121 16q78 0 113.5 -23.5t35.5 -80.5q0 -84 -15 -376t-15 -454q0 -139 71.5 -205.5t167.5 -66.5q88 0 185.5 45t156.5 108v65q0 50 1 178t1 329q0 287 -14 473q63 8 113 8q133 0 133 -78q0 -4 -4.5 -75.5t-8.5 -224t-4 -353.5q0 -317 6.5 -425t32.5 -198 q-45 -16 -127 -16q-74 0 -102.5 25.5t-28.5 95.5v39q-80 -78 -191.5 -126t-205.5 -48q-186 0 -296 91t-110 322q0 121 9.5 328t9.5 305q0 195 -35 322z" />
<glyph unicode="V" horiz-adv-x="1183" d="M-35 1286q109 80 182.5 80t112.5 -76q82 -168 185.5 -477t168.5 -567q135 197 232.5 497.5t97.5 520.5q0 72 -8 100q55 14 113 14q66 0 92 -22.5t26 -77.5q0 -225 -143 -603t-293 -569q-53 -68 -95 -90t-101 -22q-53 0 -80 6q-66 330 -222.5 753.5t-267.5 532.5z" />
<glyph unicode="W" horiz-adv-x="1941" d="M-35 1286q109 80 182 80q80 0 113 -76q76 -176 168 -481t152 -563q123 197 210 497.5t87 520.5q0 72 -9 100q55 14 113 14q66 0 92.5 -22.5t26.5 -77.5q0 -18 -4 -59q160 -408 290 -973q123 197 210 497.5t87 520.5q0 72 -8 100q55 14 113 14q66 0 92.5 -22.5t26.5 -77.5 q0 -225 -135.5 -603t-276.5 -569q-49 -68 -90 -90t-96 -22q-49 0 -74 6q-70 362 -229 801q-63 -203 -149.5 -394.5t-168.5 -300.5q-49 -68 -90 -90t-96 -22q-49 0 -74 6q-61 330 -210 753.5t-253 532.5z" />
<glyph unicode="X" horiz-adv-x="1239" d="M43 90q0 139 469 612q-25 35 -106.5 153t-123.5 175t-105.5 133t-108.5 115q72 66 107.5 83t74.5 17q70 0 129 -73q41 -51 126 -188.5t144 -250.5q84 113 161 255.5t103 254.5q217 -12 217 -112q0 -80 -122.5 -242t-272.5 -305q115 -170 182.5 -268.5t160.5 -215 t149 -155.5q-88 -98 -176 -98q-86 0 -142 79q-174 233 -311 494q-279 -356 -340 -573q-215 8 -215 110z" />
<glyph unicode="Y" horiz-adv-x="1038" d="M-18 1257q33 43 84 76t98 33q72 0 121 -70q152 -223 282 -505q94 145 176 329.5t93 255.5q195 -8 194 -114q0 -72 -132 -273t-263 -360v-213q0 -272 39 -402q-57 -20 -127 -20q-76 0 -103.5 26.5t-27.5 90.5q0 33 2 161.5t2 200.5v148q-288 536 -438 636z" />
<glyph unicode="Z" horiz-adv-x="1155" d="M45 115q0 66 51 129l752 960q-80 6 -197 6q-297 0 -526 -55q-20 57 -21 102q0 68 60 89q88 20 266 20q371 0 657 -39q33 -37 33 -82q0 -49 -35 -94l-809 -1012q31 -2 117 -2q399 0 660 80q25 -74 24 -115q0 -39 -21.5 -60.5t-49 -28.5t-80.5 -13q-129 -12 -342 -12 q-305 0 -502 24q-37 50 -37 103z" />
<glyph unicode="[" horiz-adv-x="778" d="M260 -389v1864h432q16 -33 17 -64q0 -49 -30 -67.5t-93 -18.5q-80 0 -125 2v-1569q59 2 125 2q68 0 95.5 -21.5t27.5 -64.5q0 -23 -15 -63h-434z" />
<glyph unicode="\" horiz-adv-x="538" d="M61 1462q0 57 84 58q33 0 64 -11q25 -238 63 -473q45 -289 84 -529.5t57.5 -357t32 -199.5t17.5 -106.5t4 -27.5q0 -57 -82 -58q-33 0 -68 6q-10 143 -63 474q-84 541 -160 1013q-33 203 -33 211z" />
<glyph unicode="]" horiz-adv-x="724" d="M51 -326q0 43 27.5 64.5t95.5 21.5q66 0 125 -2v1569q-45 -2 -125 -2q-63 0 -93 18.5t-30 67.5q0 31 17 64h432v-1864h-434q-15 40 -15 63z" />
<glyph unicode="^" horiz-adv-x="999" d="M43 883q47 80 201.5 251t255.5 269q96 -94 251.5 -267t204.5 -253q-51 -47 -88 -47q-78 0 -368 307q-104 -111 -214 -209t-153 -98t-90 47z" />
<glyph unicode="_" d="M0 -250q0 33 18.5 59.5t55.5 26.5q6 0 129 -7t213 -7h291q260 0 383 14q6 -18 6 -61q0 -37 -20.5 -61.5t-53.5 -24.5q-31 0 -141.5 8t-167.5 8h-293q-233 0 -414 -16q-6 30 -6 61z" />
<glyph unicode="`" horiz-adv-x="466" d="M-88 1354q0 72 106 125q82 -88 172.5 -156t130 -98.5t39.5 -63.5q0 -47 -65 -90q-63 47 -169 103.5t-160 96.5t-54 83z" />
<glyph unicode="a" horiz-adv-x="978" d="M78 270q0 115 49 170.5t131 81.5q123 39 371 41q0 70 -3 107t-16.5 84t-45.5 68.5t-85 21.5q-68 0 -128 -44t-87 -122q-182 2 -182 108q0 88 124 147.5t281 59.5q188 0 275.5 -77.5t87.5 -278.5q0 -6 -2 -96t-2 -176q0 -233 39 -351q-59 -23 -117 -22q-115 0 -137 94 q-123 -106 -277 -106q-119 0 -197.5 73.5t-78.5 216.5zM301 285q0 -82 41 -121t104 -39q104 0 179 78q-4 27 -4 90q0 94 4 145q-61 -8 -89 -12t-75 -12t-68.5 -18.5t-46 -25t-35 -35.5t-10.5 -50z" />
<glyph unicode="b" horiz-adv-x="1069" d="M104 1513q39 8 109 9q143 0 143 -111q0 -25 -6 -178.5t-6 -345.5q131 106 297 106q160 0 260 -119.5t100 -359.5q0 -225 -118.5 -379.5t-341.5 -154.5q-244 0 -418 143q14 121 14 436q0 182 -10.5 529t-22.5 425zM342 229q98 -98 217 -98q111 0 165 110.5t54 266.5 q0 170 -60.5 253t-150.5 83q-119 0 -221 -103q2 -123 2 -272q0 -140 -6 -240z" />
<glyph unicode="c" horiz-adv-x="950" d="M78 477q0 254 147.5 385t335.5 131q115 0 218.5 -54t103.5 -151q0 -43 -43 -69.5t-117 -34.5q-16 74 -73.5 115t-117.5 41q-98 0 -163.5 -94.5t-65.5 -245.5q0 -195 77 -284t200 -89q55 0 114.5 28.5t87.5 82.5q100 -53 101 -115q0 -70 -96.5 -106.5t-215.5 -36.5 q-88 0 -173 29.5t-158.5 87t-117.5 155.5t-44 225z" />
<glyph unicode="d" horiz-adv-x="1083" d="M78 487q0 227 126 366.5t306 139.5q119 0 221 -57q0 367 -24 577q57 8 110 9q68 0 104.5 -29t36.5 -82q0 -51 -9 -373.5t-9 -578.5q0 -340 39 -445q-51 -20 -113 -20q-115 0 -127 86q-119 -100 -252 -100q-166 0 -287.5 143t-121.5 364zM301 518q0 -172 70.5 -279.5 t173.5 -107.5q96 0 186 90q-4 377 -4 580q-86 43 -172 43q-117 0 -185.5 -90.5t-68.5 -235.5z" />
<glyph unicode="e" horiz-adv-x="993" d="M78 473q0 252 144.5 386t340.5 134q158 0 255 -86t97 -205q0 -96 -35.5 -158.5t-105 -91t-141.5 -39t-176 -10.5q-55 0 -150 5q20 -145 93 -213t180 -68q55 0 114.5 28.5t87.5 82.5q100 -53 101 -115q0 -70 -96.5 -106.5t-215.5 -36.5q-193 0 -343 126.5t-150 366.5z M301 537q131 0 193 6q199 25 198 155q0 59 -42 102.5t-105 43.5q-96 0 -164 -73.5t-80 -233.5z" />
<glyph unicode="f" horiz-adv-x="692" d="M8 883q0 43 22.5 59t63.5 25q37 4 80 4q4 256 88 375.5t297 119.5q82 0 137.5 -27.5t55.5 -76.5q0 -55 -76 -117q-74 68 -154 68q-57 0 -94 -45q-43 -59 -43 -228v-69q172 0 262 10q10 -23 10 -66q0 -51 -24.5 -70.5t-77.5 -21.5q-59 -2 -170 -2v-405q0 -270 39 -402 q-45 -20 -105 -20q-86 0 -117.5 25.5t-31.5 84.5q0 111 2 341.5t2 373.5q-29 0 -158 -12q-8 33 -8 76z" />
<glyph unicode="g" horiz-adv-x="1110" d="M61 -268q0 117 148 217q-74 43 -74 100q0 39 39 106.5t105 125.5q-96 41 -147.5 129t-51.5 206q0 162 118.5 270.5t301.5 108.5q160 0 266 -73q86 109 190 108q119 0 119 -106q0 -31 -12 -70q-45 10 -76 10q-63 0 -131 -28q61 -100 62 -220q0 -172 -117 -274t-281 -102 q-53 0 -108 10q-70 -74 -70 -125q0 -41 123 -41h233q313 0 314 -234q0 -162 -158 -262t-381 -100q-205 0 -308.5 71t-103.5 173zM264 -231q0 -106 223 -107q166 0 252 47t86 115q0 51 -34.5 70.5t-104.5 19.5h-201q-106 0 -155 8q-66 -90 -66 -153zM301 633 q0 -104 52.5 -173t144.5 -69q106 0 151 51.5t45 157.5q0 104 -53 175t-143 71q-197 0 -197 -213z" />
<glyph unicode="h" horiz-adv-x="1083" d="M104 1511q57 10 107 11q145 0 145 -113q0 -8 -5 -71.5t-11 -185.5t-6 -267q141 109 317 108q125 0 203 -73.5t78 -237.5q0 -12 -1 -61.5t-3 -130t-2 -168.5q0 -168 53 -304q-63 -27 -115 -26q-84 0 -118.5 34.5t-34.5 131.5q0 78 4 265t4 200q0 113 -45 168t-117 55 q-113 0 -225 -109q2 -76 3 -330.5t13 -402.5q-55 -8 -102 -8q-133 0 -133 82q0 12 3 98t5 263t2 409q-1 483 -19 663z" />
<glyph unicode="i" horiz-adv-x="509" d="M100 1210q0 61 45 103.5t107 42.5q59 0 102 -42t43 -103.5t-45 -103.5t-104 -42q-61 0 -104.5 41t-43.5 104zM131 971q49 8 107 8q147 0 147 -109q0 -12 -6 -82.5t-11.5 -175t-5.5 -198.5q0 -274 54 -400q-51 -23 -117 -22q-90 0 -122 37t-32 125q0 33 2.5 158.5 t2.5 193.5q-1 297 -19 465z" />
<glyph unicode="j" horiz-adv-x="522" d="M-256 -399q0 61 86 127q80 -92 190 -93q156 0 156 234q0 74 -3 274.5t-3 331.5q0 348 -18 496q53 10 106 10q145 0 145 -109q0 -51 -11 -199.5t-11 -281.5q0 -23 4 -222.5t4 -311.5q0 -184 -101.5 -278.5t-289.5 -94.5q-102 0 -178 33t-76 84zM121 1210q0 61 45 103.5 t106 42.5q59 0 102.5 -42t43.5 -103.5t-45 -103.5t-105 -42q-61 0 -104 41t-43 104z" />
<glyph unicode="k" horiz-adv-x="1009" d="M104 1511q57 10 107 11q145 0 145 -113q0 -18 -5 -87t-11 -182.5t-6 -240.5q135 94 274 94q143 0 218 -76.5t75 -189.5q0 -117 -76.5 -211t-212.5 -117q76 -131 148 -202q59 -57 100 -57.5t80 12.5q23 -51 23 -78q0 -47 -50.5 -70.5t-124.5 -23.5q-84 0 -159 86 q-109 125 -211 356q-35 14 -35 55q0 27 14 66q43 -12 92 -13q90 0 142.5 53.5t52.5 123.5q0 57 -36 97t-101 40q-94 0 -215 -92q2 -78 3 -338t13 -410q-55 -8 -102 -8q-133 0 -133 82q0 14 3 100t5 262t2 408q-1 483 -19 663z" />
<glyph unicode="l" horiz-adv-x="493" d="M104 1511q57 10 107 11q145 0 145 -113q0 -12 -6 -95t-11 -238.5t-5 -346.5q0 -393 8 -505.5t47 -205.5q-59 -27 -121 -26q-88 0 -118.5 38t-30.5 128q4 385 4 565q-1 620 -19 788z" />
<glyph unicode="m" horiz-adv-x="1695" d="M104 956l9 7q55 16 98 16q59 0 92 -18.5t41 -81.5q145 115 328 114q178 0 246 -131q143 131 344 131q125 0 203.5 -73.5t78.5 -237.5q0 -6 -3 -149.5t-3 -210.5q0 -168 53 -304q-63 -27 -116 -26q-84 0 -119 34.5t-35 131.5q0 72 4 243.5t4 221.5q0 113 -44 168t-116 55 q-111 0 -227 -107q4 -274 4 -417q0 -184 12 -318q-55 -8 -100 -8q-135 0 -135 82q0 35 8 204t8 341q0 113 -45 168t-116 55q-113 0 -226 -107q4 -274 4 -399q0 -197 13 -336q-55 -8 -103 -8q-133 0 -133 82q0 47 5 183t5 247q0 342 -39 448z" />
<glyph unicode="n" horiz-adv-x="1089" d="M104 956q49 23 107 23q59 0 92 -18.5t41 -81.5q145 115 328 114q125 0 202.5 -73.5t77.5 -237.5q0 -23 -3 -160t-3 -200q0 -168 53 -304q-63 -27 -114 -26q-84 0 -119 34.5t-35 131.5q0 106 4 256.5t4 208.5q0 113 -45 168t-116 55q-109 0 -226 -107q4 -274 4 -399 q0 -197 13 -336q-55 -8 -103 -8q-133 0 -133 82q0 59 5 192t5 240q0 340 -39 446z" />
<glyph unicode="o" horiz-adv-x="1105" d="M78 487.5q0 231.5 130 368.5t343 137q215 0 346 -137t131 -368.5t-131 -369.5t-346 -138q-213 0 -343 138t-130 369.5zM301 514q0 -166 66.5 -274.5t183.5 -108.5q121 0 187.5 90t66.5 240q0 164 -68.5 273.5t-185.5 109.5q-119 0 -184.5 -90t-65.5 -240z" />
<glyph unicode="p" horiz-adv-x="1085" d="M104 956q51 23 115 23q119 0 127 -107q150 121 305 121q158 0 257.5 -110.5t99.5 -339.5q0 -236 -115 -399.5t-330 -163.5q-109 0 -211 57q0 -414 41 -533q-61 -20 -117 -20q-82 0 -110.5 27.5t-28.5 93.5q0 154 3 477.5t3 429.5q0 333 -39 444zM352 754q4 -504 4 -568 q80 -55 201 -55q78 0 131 59.5t74.5 142.5t21.5 181q0 170 -58 250t-151 80q-114 0 -223 -90z" />
<glyph unicode="q" horiz-adv-x="1099" d="M78 485q0 236 135 372t338 136q246 0 430 -141q-27 -274 -27 -805q0 -444 41 -545q-55 -18 -114 -18q-84 0 -113 28.5t-29 79.5q0 301 4 471q-106 -84 -247 -83q-172 0 -295 144t-123 361zM301 524q0 -180 69.5 -286.5t174.5 -106.5q115 0 198 92q2 199 17 529 q-90 92 -219 92q-100 0 -170 -90.5t-70 -229.5z" />
<glyph unicode="r" horiz-adv-x="733" d="M104 969q59 10 107 10q74 0 105.5 -26.5t31.5 -84.5v-24q119 150 232 149q119 0 118 -86q0 -57 -73 -149q-43 37 -97 37q-104 0 -188 -113q-6 -133 -6 -266q0 -268 55 -398q-55 -27 -121 -26q-88 0 -118.5 39t-30.5 125q0 25 2 139.5t2 179.5q-1 342 -19 494z" />
<glyph unicode="s" horiz-adv-x="894" d="M70 143q0 88 127 142q61 -143 266 -144q156 0 155 105q0 61 -54 93t-132 47t-155.5 40t-132 90.5t-54.5 175.5q0 147 118 224t277 77q61 0 128 -13t129.5 -55t62.5 -106q0 -41 -41 -72.5t-111 -48.5q-41 133 -227 133q-53 0 -92 -28.5t-39 -81.5q0 -61 54 -96t132 -51.5 t156 -39t132 -84t54 -163.5q0 -150 -117.5 -228.5t-277.5 -78.5q-141 0 -249.5 46.5t-108.5 116.5z" />
<glyph unicode="t" horiz-adv-x="761" d="M0 874q0 53 23.5 72t76.5 25q18 2 93 2q-4 121 -13 207q43 8 101 8q141 0 141 -76q0 -49 -6 -141q221 0 307 12q12 -23 12 -63q0 -55 -24.5 -75t-77.5 -22q-61 -2 -221 -2q-4 -193 -4 -415q0 -66 4 -109t18 -86t43 -64.5t74 -21.5q63 0 131 72q53 -59 53 -101 q0 -59 -60.5 -87.5t-135.5 -28.5q-342 0 -342 372q0 96 1 267.5t1 203.5q-131 -8 -187 -16q-8 22 -8 67z" />
<glyph unicode="u" horiz-adv-x="1083" d="M104 963q55 18 113 18q76 0 108.5 -24.5t32.5 -82.5q0 -106 -6 -290.5t-6 -237.5q0 -104 44 -159.5t114 -55.5q119 0 227 105q-2 84 -2 260q0 307 -14 477q57 8 102 8q131 0 131 -80q0 -37 -4 -205t-4 -278q0 -256 39 -402q-43 -23 -102 -22q-39 0 -61.5 5t-43 28.5 t-27.5 68.5q-135 -117 -311 -116q-301 0 -301 290q0 14 3 156.5t3 206.5q0 211 -35 330z" />
<glyph unicode="v" horiz-adv-x="946" d="M-6 915q90 70 162 70q70 0 104.5 -71.5t110 -289.5t125.5 -391q63 102 123.5 315.5t60.5 364.5q0 37 -6 68q45 12 98 12q115 0 115 -82q0 -139 -103.5 -421.5t-208.5 -413.5q-66 -82 -151 -82q-61 0 -96 8q-47 240 -153.5 539.5t-180.5 373.5z" />
<glyph unicode="w" horiz-adv-x="1503" d="M-6 915q90 70 162 70q70 0 104 -72q37 -72 111.5 -288.5t124.5 -388.5q61 109 122.5 316.5t61.5 360.5q0 37 -6 68q45 12 98 12q115 0 115 -82q0 -55 -19 -131q125 -332 185 -544q68 115 127 316.5t59 360.5q0 37 -6 68q41 12 96 12q115 0 115 -82q0 -139 -102.5 -421.5 t-206.5 -413.5q-68 -82 -154 -82q-61 0 -94 8q-43 217 -117 447q-98 -252 -195 -373q-66 -82 -151 -82q-61 0 -96 8q-47 240 -153.5 539.5t-180.5 373.5z" />
<glyph unicode="x" horiz-adv-x="933" d="M43 61q0 59 106.5 196.5t212.5 240.5q-229 338 -319 397q94 98 156 98q74 0 116 -57q49 -63 170 -268q129 225 144 327q195 -4 194 -82q0 -49 -85 -170.5t-183 -222.5q104 -162 203.5 -292t148.5 -165q-82 -84 -166 -83q-59 0 -108 61q-70 86 -205 311 q-174 -258 -195 -372q-190 -1 -190 81z" />
<glyph unicode="y" horiz-adv-x="954" d="M0 913q100 70 162 70q78 0 110 -70q45 -94 125 -291.5t133 -371.5q70 172 115 362.5t45 307.5q0 37 -4 61q47 12 105 12q111 0 110 -86q0 -94 -73.5 -325.5t-174.5 -448.5q-184 -399 -338 -590q-45 -55 -104 -55q-41 0 -79 30.5t-62 78.5q57 39 149 145t176 246 q-76 252 -195.5 548.5t-199.5 376.5z" />
<glyph unicode="z" horiz-adv-x="1001" d="M43 121q0 55 49 106q66 68 268.5 275t309.5 319q-57 4 -176 4q-221 0 -371 -53q-20 57 -21 115q4 61 66 82q51 16 207 16q113 0 260 -16.5t227 -36.5q35 -41 35 -105q0 -57 -39 -96q-209 -219 -569 -588q336 0 540 68q20 -53 21 -105q0 -37 -19.5 -60t-43 -30.5 t-62.5 -13.5q-86 -14 -270 -14q-225 0 -379 26q-33 50 -33 107z" />
<glyph unicode="{" horiz-adv-x="886" d="M121 520v133q113 0 171 49.5t58 102.5v420q0 125 71 182t265 57q47 0 96 -4q16 -33 17 -61q0 -49 -31 -67.5t-98 -18.5q-82 0 -101.5 -22.5t-19.5 -88.5v-401q0 -57 -40 -121t-91 -94q53 -33 93 -93.5t40 -117.5v-404q0 -68 18.5 -90t100.5 -22q68 0 98.5 -18.5 t30.5 -67.5q0 -27 -17 -60q-49 -4 -96 -4q-195 0 -266.5 57.5t-71.5 182.5v422q0 53 -57 101t-170 48z" />
<glyph unicode="|" d="M453 1503q33 6 94 6q94 0 94 -77q0 -10 -7 -147.5t-7 -203.5v-1192q0 -246 16 -393q-33 -6 -94 -6q-94 0 -94 78q0 10 7 178t7 236v1173q0 239 -16 348z" />
<glyph unicode="}" horiz-adv-x="847" d="M51 -227q0 49 31 67.5t98 18.5q82 0 100.5 22.5t18.5 89.5v404q0 57 40 117.5t93 93.5q-51 31 -91 94t-40 121v401q0 66 -19.5 88.5t-101.5 22.5q-68 0 -98.5 18.5t-30.5 67.5q0 29 17 61q49 4 96 4q195 0 265.5 -57t70.5 -182v-420q0 -53 58 -102.5t171 -49.5v-133 q-113 0 -170 -48t-57 -101v-422q0 -125 -72 -182.5t-266 -57.5q-47 0 -96 4q-17 33 -17 60z" />
<glyph unicode="~" horiz-adv-x="1140" d="M70 551q0 139 252 139q117 0 266 -40t227 -40q94 0 191 95q66 -82 65 -138q0 -74 -73.5 -107.5t-182.5 -33.5q-74 0 -226.5 40t-234.5 40q-123 0 -217 -94q-67 88 -67 139z" />
<glyph unicode="&#xa1;" horiz-adv-x="630" d="M156 848q0 61 45 103t106 42q59 0 102.5 -42t43.5 -103.5t-45.5 -103.5t-104.5 -42q-61 0 -104 41.5t-43 104.5zM188 -336q2 78 18.5 243t16.5 277q0 229 -30 312q59 27 106 26q115 0 117 -102q2 -63 3 -219t3 -251t10 -208t25 -174q-90 -16 -142 -17q-127 0 -127 113z " />
<glyph unicode="&#xa2;" d="M133 672q0 223 121 352t307 164q0 37 -10 207q31 6 47 6q76 0 76 -55v-148q117 -2 232.5 -51t115.5 -129q0 -86 -139 -113q-92 143 -209 148v-768q61 2 107 33.5t102 109.5q66 -14 102.5 -45t36.5 -66q0 -78 -109.5 -128t-238.5 -50q2 -109 10 -168l-41 -4q-82 0 -82 56 v124q-184 31 -306 161.5t-122 363.5zM354 668q0 -281 207 -367v727q-92 -25 -149.5 -121t-57.5 -239z" />
<glyph unicode="&#xa3;" d="M129 121q141 84 220 204.5t79 225.5q0 61 -16 121q-141 0 -217 -8q-12 33 -13 49q0 16 5.5 28.5t18.5 19.5t24.5 12t32 7t32.5 3t36.5 2t35.5 1q-4 10 -18.5 40t-20.5 44.5t-16.5 41t-15.5 45t-9 41t-4 42.5q0 125 97 232.5t245 107.5q72 0 131 -33.5t59 -97.5 q0 -74 -121 -114q-45 82 -114 82q-41 0 -69 -30t-28 -87q0 -59 59.5 -176t65.5 -131q137 8 264 26q12 -29 13 -65q0 -55 -33 -71.5t-104 -16.5q-51 0 -99 2q6 -33 6 -72q0 -211 -290 -459q43 -2 124 -2q262 0 457 74q47 -51 47 -100q0 -59 -75 -86q-74 -29 -306 -29 q-301 0 -456 29q-27 32 -27 98z" />
<glyph unicode="&#xa5;" d="M23 1272q63 98 149 98q61 0 117 -78q145 -207 303 -493q92 133 181 316t93 255q31 8 64 8q127 0 127 -94q0 -45 -104.5 -228.5t-215.5 -332.5q147 0 273 14l10 -51q0 -74 -88 -74h-270v-110q213 0 348 12l10 -47q0 -74 -88 -74h-270q0 -250 36 -370q-61 -29 -110 -29 q-74 0 -103.5 28.5t-29.5 86.5q2 135 2 284q-211 0 -334 -12q-12 23 -12 51q0 70 88 70h260v110q-211 0 -336 -12q-12 27 -12 53q0 70 88 70h213q-27 43 -81.5 138t-80 135t-67.5 101.5t-79.5 101.5t-80.5 73z" />
<glyph unicode="&#xa6;" d="M453 393q33 6 94 6q94 0 94 -77q0 -10 -7 -147.5t-7 -203.5v-82q0 -246 16 -393q-33 -6 -94 -6q-94 0 -94 78q0 8 7 164.5t7 230.5v80q0 241 -16 350zM453 1503q33 6 94 6q94 0 94 -77q0 -10 -7 -147.5t-7 -203.5v-82q0 -246 16 -393q-33 -6 -94 -6q-94 0 -94 78 q0 10 7 211t7 268q0 237 -16 346z" />
<glyph unicode="&#xa7;" horiz-adv-x="933" d="M78 16q0 41 38 64.5t111 46.5q47 -141 242 -141q145 0 145 141q0 80 -53 133t-129 85t-151.5 66.5t-129 102.5t-53.5 168q0 139 109 203q-63 76 -64 196q0 133 101.5 215t267.5 82q104 0 205.5 -46t101.5 -128q0 -72 -149 -108q-25 61 -84.5 99t-122.5 38q-55 0 -94 -31 t-39 -92q0 -80 53 -135t130 -90t152.5 -73t129 -106.5t53.5 -166.5q0 -117 -107 -203q66 -80 66 -189q0 -127 -100.5 -217t-280.5 -90q-137 0 -242.5 51t-105.5 125zM287 719q0 -72 63.5 -123t165.5 -95t135 -69q8 25 8 70q0 63 -42 108t-95 67.5t-122.5 52.5t-104.5 58 q-8 -24 -8 -69z" />
<glyph unicode="&#xa8;" horiz-adv-x="559" d="M-53 1210q0 61 45 103.5t106 42.5q59 0 102.5 -42t43.5 -103.5t-45 -103.5t-105 -42q-61 0 -104 41t-43 104zM336 1210q0 61 45 103.5t106 42.5q59 0 102.5 -42t43.5 -103.5t-45 -103.5t-105 -42q-61 0 -104 41t-43 104z" />
<glyph unicode="&#xa9;" horiz-adv-x="1757" d="M266 655q0 311 205 518t506 207q297 0 501.5 -206.5t204.5 -518.5q0 -307 -205.5 -516t-500.5 -209q-301 0 -506 208t-205 517zM414 655.5q0 -272.5 162.5 -440.5t400.5 -168q233 0 396 168t163 440q0 270 -163 439.5t-396 169.5q-238 0 -400.5 -168t-162.5 -440.5z M547 653q0 233 135 354t307 121q61 0 126 -17t118 -59t53 -102q0 -80 -149 -100q-16 63 -63.5 96t-98.5 33q-82 0 -137.5 -84t-55.5 -219q0 -172 71 -251t167 -79q111 0 180 94q84 -51 84 -110q0 -53 -84 -93t-199 -40q-84 0 -159.5 23.5t-144 73.5t-109.5 143t-41 216z" />
<glyph unicode="&#xaa;" horiz-adv-x="630" d="M43 553q0 72 107 72q16 0 83.5 -4.5t110.5 -4.5h37q102 0 190 21q14 -33 15 -64q0 -33 -29 -52t-78 -19q-27 0 -95.5 5t-104.5 5h-19q-94 0 -207 -23q-10 37 -10 64zM51 924q0 104 131 139q66 16 195 16q0 80 -18.5 109t-75.5 29q-27 0 -56.5 -21.5t-36.5 -54.5 q-121 8 -120 65q0 49 69.5 80t159.5 31q121 0 177 -44t56 -153q0 -47 -1 -93t-1 -54q0 -133 23 -199q-49 -16 -84 -16t-51.5 8t-24.5 37q-61 -53 -151 -53q-80 0 -135.5 40t-55.5 134zM215 928q0 -39 18.5 -59.5t47.5 -20.5q51 0 90 37v125q-80 -16 -118 -32.5t-38 -49.5z " />
<glyph unicode="&#xab;" horiz-adv-x="1067" d="M70 487q209 283 364 412q78 -49 78 -84q0 -29 -70.5 -135.5t-142.5 -192.5q72 -84 142.5 -189t70.5 -136q0 -35 -78 -84q-147 122 -364 409zM520 487q209 283 365 412q78 -49 78 -84q0 -29 -71 -135.5t-142 -192.5q72 -84 142.5 -189t70.5 -136q0 -35 -78 -84 q-148 122 -365 409z" />
<glyph unicode="&#xac;" d="M35 590q0 90 119 90h735l4 -459q0 -66 -24.5 -92.5t-96.5 -26.5q-49 0 -102 29q33 111 32 358v56h-419q-102 0 -224 -43q-24 59 -24 88z" />
<glyph unicode="&#xad;" horiz-adv-x="532" d="M51 526q0 39 25.5 67t81.5 28q14 0 71.5 -4.5t98.5 -4.5q98 0 180 21q14 -43 14 -82q0 -43 -28.5 -68.5t-77.5 -25.5q-23 0 -74 5t-86 5q-90 0 -195 -23q-10 49 -10 82z" />
<glyph unicode="&#xae;" horiz-adv-x="1198" d="M174 901q0 205 135 341t334 136q195 0 331 -137t136 -340t-136 -340t-331 -137q-199 0 -334 137t-135 340zM295 901q0 -168 100.5 -271.5t247.5 -103.5q145 0 245.5 103.5t100.5 271.5t-100.5 271.5t-245.5 103.5q-147 0 -247.5 -103.5t-100.5 -271.5zM434 1147 q154 12 199 12q229 0 229 -160q0 -104 -123 -143q14 -29 95 -119q8 -8 36 -8q8 -16 9 -33q0 -23 -20.5 -36t-49.5 -13q-51 0 -82 37q-88 92 -133 174v-47q0 -86 18 -139q-39 -20 -75 -21q-96 0 -97 62q0 18 2 61t2 60v137q0 106 -10 176zM594 926q8 -2 41 -2q80 0 80 75 q0 37 -28 60.5t-66 23.5h-27v-157z" />
<glyph unicode="&#xaf;" horiz-adv-x="614" d="M0 1198q0 90 94 90q10 0 92 -6t113 -6q168 0 309 16q6 -41 6 -73q0 -90 -94 -91q-31 0 -107.5 6.5t-123.5 6.5h-41q-125 0 -240 -17q-8 39 -8 74z" />
<glyph unicode="&#xb0;" horiz-adv-x="860" d="M98 1120q0 137 89 228.5t231 91.5q133 0 219 -89t86 -221q0 -141 -88 -231t-227 -90q-135 0 -222.5 88t-87.5 223zM246 1120q0 -86 42 -141t119.5 -55t121.5 58t44 146q0 86 -40.5 141.5t-116.5 55.5q-82 0 -126 -58.5t-44 -146.5z" />
<glyph unicode="&#xb1;" d="M96 88q0 39 25.5 69.5t81.5 30.5q12 0 129 -7t207 -7q260 0 409 19q12 -37 12.5 -80t-29.5 -72t-77 -29q-39 0 -153.5 8.5t-157.5 8.5q-215 0 -437 -21q-10 49 -10 80zM96 588q0 39 25.5 69.5t81.5 30.5q43 0 116.5 -7t137.5 -7q0 180 -17 307q41 14 97 14 q49 0 82.5 -24.5t33.5 -63.5t-7 -116.5t-7 -118.5q195 0 350 20q10 -35 10 -80q0 -41 -28.5 -70.5t-75.5 -29.5q-41 0 -132 7t-126 7q0 -139 18 -268q-59 -12 -96 -12q-47 0 -82 22.5t-35 65.5q0 20 6.5 71.5t6.5 122.5q-166 -2 -351 -18q-8 41 -8 78z" />
<glyph unicode="&#xb2;" horiz-adv-x="931" d="M104 555q0 37 2 45q227 127 345 264t118 248q0 61 -45 98t-121 37q-45 0 -95 -36.5t-79 -94.5q-90 6 -90 66q0 63 99.5 129.5t220.5 66.5q133 0 215 -69.5t82 -180.5q0 -125 -110.5 -271t-330.5 -267h105q258 0 356 49q43 -51 43 -96q0 -51 -47 -68q-72 -25 -303 -24 q-166 0 -276 4q-89 0 -89 100z" />
<glyph unicode="&#xb3;" horiz-adv-x="868" d="M104 553q0 49 64 82q78 -78 197 -78q86 0 141 40t55 108q0 176 -242 176q-25 0 -37 10t-12 45q0 23 2 35q137 6 205 39.5t68 122.5q0 115 -150 114q-113 0 -192 -98q-68 31 -68 82q0 57 99.5 102t195.5 45q152 0 226.5 -59t74.5 -160q0 -164 -176 -221 q98 -31 145.5 -93.5t47.5 -139.5q0 -111 -96.5 -195t-276.5 -84q-106 0 -188.5 35t-82.5 92z" />
<glyph unicode="&#xb4;" horiz-adv-x="462" d="M104 1171q0 27 20.5 46.5t55.5 40t106.5 83t151.5 150.5q111 -57 111 -121q0 -49 -55 -88q-37 -29 -155 -94.5t-173 -116.5q-62 55 -62 100z" />
<glyph unicode="&#xb5;" horiz-adv-x="1075" d="M96 942q55 18 113 19q76 0 108.5 -25t32.5 -82q0 -106 -6 -280.5t-6 -227.5q0 -104 44 -159.5t114 -55.5q119 0 227 105q-2 84 -2 260q0 287 -14 456q57 8 102 9q131 0 131 -80q0 -37 -4 -195t-4 -268q0 -256 39 -402q-43 -23 -103 -22q-39 0 -61.5 5t-43 28.5 t-26.5 68.5q-53 -49 -133 -82.5t-155 -33.5q-61 0 -134 32q-8 -47 -8 -108q0 -111 22.5 -228.5t47.5 -171.5q-61 -20 -117 -20q-82 0 -110.5 27.5t-28.5 93.5q0 248 4 669q0 16 3 156.5t3 202.5q0 190 -35 309z" />
<glyph unicode="&#xb6;" horiz-adv-x="1058" d="M78 795q0 176 112.5 279.5t282.5 103.5q55 0 176 -4.5t158 -4.5q141 0 203 2q14 -37 14 -63q0 -84 -162 -84q-25 -291 -24 -682q0 -27 4 -207t4 -274q0 -57 -26.5 -88t-104.5 -31q-70 0 -117 18q39 106 39 469q0 186 20 797q-55 0 -108 6q-18 -201 -19 -551 q0 -51 -102 -51q-143 0 -246.5 101.5t-103.5 263.5z" />
<glyph unicode="&#xb7;" horiz-adv-x="436" d="M70 535q0 66 44 111.5t105.5 45.5t104.5 -46t43 -111q0 -68 -43 -112t-105 -44q-63 0 -106 44t-43 112z" />
<glyph unicode="&#xb8;" horiz-adv-x="376" d="M51 -434q0 39 51 86q33 -29 80 -29q76 0 76 64q0 43 -70.5 92t-70.5 94q0 68 67 193l115 -17q-39 -117 -39 -129t47 -39q121 -63 121 -166q0 -84 -78 -149.5t-194 -65.5q-105 0 -105 66z" />
<glyph unicode="&#xb9;" horiz-adv-x="782" d="M121 1260q0 76 78 90q154 29 217 28q84 0 84 -67q0 -10 -3 -71.5t-6.5 -154t-3.5 -174.5v-94q0 -160 13 -242q74 0 151 9q8 -29 8 -52q0 -86 -71 -86q-14 0 -103.5 2.5t-175.5 2.5q-113 0 -176 -2q-10 35 -10 53q0 80 108 80h84q0 20 2 147t2 215q0 166 -6 295 q-139 -25 -180 -39q-12 31 -12 60z" />
<glyph unicode="&#xba;" horiz-adv-x="700" d="M61 1032q0 129 79 207t208 78q133 0 212 -77t79 -208q0 -129 -79 -205.5t-212 -76.5q-129 0 -208 76.5t-79 205.5zM78 553q0 72 106 72q16 0 84 -4.5t111 -4.5h37q104 0 190 21q14 -33 15 -64q0 -33 -29 -52t-78 -19q-27 0 -95.5 5t-105.5 5h-18q-94 0 -207 -23 q-10 37 -10 64zM223 1049q0 -86 33 -141.5t92 -55.5q63 0 97 45t34 119q0 86 -34.5 142t-96.5 56q-59 0 -92 -44.5t-33 -120.5z" />
<glyph unicode="&#xbb;" horiz-adv-x="1067" d="M70 160q0 29 70.5 135t142.5 192q-72 84 -142.5 189.5t-70.5 136.5q0 35 77 84q147 -123 365 -410q-209 -283 -365 -411q-77 49 -77 84zM520 160q0 29 71 135t142 192q-72 84 -142.5 189.5t-70.5 136.5q0 35 78 84q147 -123 365 -410q-209 -283 -365 -411q-78 49 -78 84z " />
<glyph unicode="&#xbc;" horiz-adv-x="1935" d="M121 1260q0 76 78 90q154 29 217 28q84 0 84 -67q0 -10 -3 -71.5t-6.5 -154t-3.5 -174.5v-94q0 -160 13 -242q74 0 151 9q8 -29 8 -52q0 -86 -71 -86q-14 0 -103.5 2.5t-175.5 2.5q-113 0 -176 -2q-10 35 -10 53q0 80 108 80h84q0 20 2 147t2 215q0 166 -6 295 q-139 -25 -180 -39q-12 31 -12 60zM471 -154q0 16 23.5 65.5t201.5 403.5q213 424 385 768q135 272 203 433q129 -4 129 -68q0 -16 -25.5 -70.5t-183.5 -367.5q-217 -432 -399 -797q-141 -285 -203 -432q-131 -1 -131 65zM1083 346q0 37 2 51q72 123 198 275.5t214 230.5 q27 23 121 23q23 0 55 -4q0 -6 -4 -76t-8 -195t-4 -260q100 6 139 27q16 -33 16 -72q0 -63 -36 -76q-33 -16 -119 -18q0 -152 33 -256q-43 -16 -84 -16q-70 0 -93.5 24.5t-23.5 81.5q0 33 2 71t2 93q-270 0 -371 14q-39 2 -39 82zM1237 385q45 -2 164 -2h92q0 86 2 194.5 t2 137.5q-137 -137 -260 -330z" />
<glyph unicode="&#xbd;" horiz-adv-x="2021" d="M121 1260q0 76 78 90q154 29 217 28q84 0 84 -67q0 -10 -3 -71.5t-6.5 -154t-3.5 -174.5v-94q0 -160 13 -242q74 0 151 9q8 -29 8 -52q0 -86 -71 -86q-14 0 -103.5 2.5t-175.5 2.5q-113 0 -176 -2q-10 35 -10 53q0 80 108 80h84q0 20 2 147t2 215q0 166 -6 295 q-139 -25 -180 -39q-12 31 -12 60zM471 -154q0 16 23.5 65.5t201.5 403.5q213 424 385 768q135 272 203 433q129 -4 129 -68q0 -16 -25.5 -70.5t-183.5 -367.5q-217 -432 -399 -797q-141 -285 -203 -432q-131 -1 -131 65zM1194 102q0 37 2 45q227 127 345 264.5t118 247.5 q0 61 -45 98.5t-121 37.5q-45 0 -95 -37t-79 -94q-90 6 -90 65q0 63 99 130t220 67q133 0 215 -70t82 -180q0 -125 -110.5 -271.5t-329.5 -267.5h104q258 0 357 49q43 -51 43 -96q0 -51 -47 -67q-72 -25 -303 -25q-166 0 -277 4q-88 0 -88 100z" />
<glyph unicode="&#xbe;" horiz-adv-x="1972" d="M104 553q0 49 64 82q78 -78 197 -78q86 0 141 40t55 108q0 176 -242 176q-25 0 -37 10t-12 45q0 23 2 35q137 6 205 39.5t68 122.5q0 115 -150 114q-113 0 -192 -98q-68 31 -68 82q0 57 99.5 102t195.5 45q152 0 226.5 -59t74.5 -160q0 -164 -176 -221 q98 -31 145.5 -93.5t47.5 -139.5q0 -111 -96.5 -195t-276.5 -84q-106 0 -188.5 35t-82.5 92zM514 -154q0 16 23.5 65.5t201.5 403.5q213 424 385 768q137 272 203 433q129 -4 129 -68q0 -16 -25.5 -70.5t-183.5 -367.5q-217 -432 -399 -797q-141 -285 -203 -432 q-131 -1 -131 65zM1122 346q0 37 2 51q72 123 198 275.5t214 230.5q27 23 121 23q23 0 55 -4q0 -6 -4 -76t-8 -195t-4 -260q100 6 139 27q16 -33 16 -72q0 -63 -36 -76q-33 -16 -119 -18q0 -152 33 -256q-43 -16 -84 -16q-70 0 -93.5 24.5t-23.5 81.5q0 33 2 71t2 93 q-270 0 -371 14q-39 2 -39 82zM1276 385q45 -2 164 -2h92q0 86 2 194.5t2 137.5q-139 -137 -260 -330z" />
<glyph unicode="&#xbf;" horiz-adv-x="772" d="M35 -170q0 78 31.5 146.5t63.5 104.5t89 87q41 37 61.5 59.5t42 64.5t21.5 83q0 45 -22 112q57 35 110 35q125 0 125 -135q0 -55 -26.5 -110.5t-52 -85t-79.5 -87.5q-49 -51 -73.5 -81.5t-49 -84t-24.5 -110.5q0 -68 37 -101.5t98 -33.5q68 0 128 43t79 112 q154 -25 154 -108q0 -86 -98.5 -138.5t-233.5 -52.5q-164 0 -272.5 73t-108.5 208zM274 848q0 61 45.5 103t106.5 42q59 0 102 -42t43 -103.5t-45 -103.5t-104 -42q-61 0 -104.5 41.5t-43.5 104.5z" />
<glyph unicode="&#xc0;" horiz-adv-x="1173" d="M8 41q0 29 87 232.5t212 519t197 559.5q41 6 106 6q53 0 83 -21.5t52 -87.5q158 -492 230 -676q154 -399 231 -553q-78 -41 -131 -40q-86 0 -119 55q-25 63 -68.5 187t-68.5 190q-201 -4 -244 -4q-53 0 -221 4q-133 -342 -164 -455q-182 21 -182 84zM301 1749 q0 72 107 125q82 -88 172 -155.5t130 -98.5t40 -64q0 -47 -66 -90q-63 47 -168.5 103.5t-160 96.5t-54.5 83zM418 563q131 -4 200 -4q106 0 148 2q-31 84 -60.5 175t-62.5 195.5t-45 143.5q-98 -309 -180 -512z" />
<glyph unicode="&#xc1;" horiz-adv-x="1173" d="M8 41q0 29 87 232.5t212 519t197 559.5q41 6 106 6q53 0 83 -21.5t52 -87.5q158 -492 230 -676q154 -399 231 -553q-78 -41 -131 -40q-86 0 -119 55q-25 63 -68.5 187t-68.5 190q-201 -4 -244 -4q-53 0 -221 4q-133 -342 -164 -455q-182 21 -182 84zM418 563 q131 -4 200 -4q106 0 148 2q-31 84 -60.5 175t-62.5 195.5t-45 143.5q-98 -309 -180 -512zM475 1567q0 27 20.5 46t55.5 39.5t106.5 83t151.5 150.5q111 -57 111 -121q0 -49 -56 -88q-37 -29 -154.5 -94t-172.5 -117q-62 56 -62 101z" />
<glyph unicode="&#xc2;" horiz-adv-x="1173" d="M8 41q0 29 87 232.5t212 519t197 559.5q41 6 106 6q53 0 83 -21.5t52 -87.5q158 -492 230 -676q154 -399 231 -553q-78 -41 -131 -40q-86 0 -119 55q-25 63 -68.5 187t-68.5 190q-201 -4 -244 -4q-53 0 -221 4q-133 -342 -164 -455q-182 21 -182 84zM307 1536 q152 178 320 297q281 -195 280 -283q0 -43 -76 -92q-78 96 -206 178q-178 -154 -234 -153q-43 0 -84 53zM418 563q131 -4 200 -4q106 0 148 2q-31 84 -60.5 175t-62.5 195.5t-45 143.5q-98 -309 -180 -512z" />
<glyph unicode="&#xc3;" horiz-adv-x="1173" d="M8 41q0 29 87 232.5t212 519t197 559.5q41 6 106 6q53 0 83 -21.5t52 -87.5q158 -492 230 -676q154 -399 231 -553q-78 -41 -131 -40q-86 0 -119 55q-25 63 -68.5 187t-68.5 190q-201 -4 -244 -4q-53 0 -221 4q-133 -342 -164 -455q-182 21 -182 84zM291 1544 q0 59 68.5 112.5t152.5 53.5q49 0 126 -45t99 -45q39 0 105 92q72 -20 71 -65q0 -61 -68.5 -119t-150.5 -58q-59 0 -137 45.5t-92 45.5q-29 0 -105 -95q-69 31 -69 78zM418 563q131 -4 200 -4q106 0 148 2q-31 84 -60.5 175t-62.5 195.5t-45 143.5q-98 -309 -180 -512z" />
<glyph unicode="&#xc4;" horiz-adv-x="1173" d="M8 41q0 29 87 232.5t212 519t197 559.5q41 6 106 6q53 0 83 -21.5t52 -87.5q158 -492 230 -676q154 -399 231 -553q-78 -41 -131 -40q-86 0 -119 55q-25 63 -68.5 187t-68.5 190q-201 -4 -244 -4q-53 0 -221 4q-133 -342 -164 -455q-182 21 -182 84zM256 1604 q0 61 45 103t107 42q59 0 102 -42t43 -103.5t-45 -103.5t-105 -42q-61 0 -104 41.5t-43 104.5zM418 563q131 -4 200 -4q106 0 148 2q-31 84 -60.5 175t-62.5 195.5t-45 143.5q-98 -309 -180 -512zM645 1604q0 61 45 103t107 42q59 0 102 -42t43 -103.5t-45 -103.5t-104 -42 q-61 0 -104.5 41.5t-43.5 104.5z" />
<glyph unicode="&#xc5;" horiz-adv-x="1173" d="M8 41q0 29 87 232.5t212 519t197 559.5q41 6 106 6q53 0 83 -21.5t52 -87.5q158 -492 230 -676q154 -399 231 -553q-78 -41 -131 -40q-86 0 -119 55q-25 63 -68.5 187t-68.5 190q-201 -4 -244 -4q-53 0 -221 4q-133 -342 -164 -455q-182 21 -182 84zM414 1655 q0 88 54 141t140 53t138.5 -53t52.5 -141t-52.5 -141.5t-138.5 -53.5t-140 53.5t-54 141.5zM418 563q131 -4 200 -4q106 0 148 2q-31 84 -60.5 175t-62.5 195.5t-45 143.5q-98 -309 -180 -512zM530 1663q0 -45 21.5 -74.5t56.5 -29.5q74 0 74 86q0 47 -19.5 76.5t-54.5 29.5 q-78 0 -78 -88z" />
<glyph unicode="&#xc6;" horiz-adv-x="1624" d="M0 92q0 12 18.5 51t55.5 104.5t70.5 125t86 148.5t80.5 138q201 356 332 664q150 41 559 41q311 0 350 -31q18 -18 19 -65q0 -61 -17 -111q-115 43 -368 43q-104 0 -217 -6q8 -80 8 -383h153q164 0 234 8q8 -18 8 -65q0 -57 -20.5 -79t-65.5 -24q-51 -2 -137 -2h-172 q0 -408 14 -489q86 -4 142 -4q328 0 423 45q16 -47 17 -109q0 -47 -19 -65q-39 -31 -350 -31q-279 0 -340 4q-63 2 -84.5 27.5t-21.5 89.5q0 74 4 291h-139q-131 0 -234 4q-16 -31 -70.5 -130.5t-85 -165t-57.5 -132.5q-98 14 -137 39.5t-39 68.5zM471 561q70 -2 209 -2h82 v139q0 319 -8 455q-193 -420 -283 -592z" />
<glyph unicode="&#xc7;" horiz-adv-x="1247" d="M86 680q0 328 181.5 513t490.5 185q166 0 278.5 -64.5t112.5 -158.5q0 -49 -40 -86t-122 -49q-31 96 -109.5 146.5t-164.5 50.5q-174 0 -284 -141.5t-110 -356.5q0 -248 112 -413t314 -165q92 0 178.5 44t135.5 132q45 -23 77.5 -58.5t32.5 -74.5q0 -82 -114.5 -142 t-292.5 -62q-12 -45 -12 -60q0 -12 47 -39q121 -63 121 -166q0 -84 -78 -149.5t-195 -65.5q-104 0 -104 66q0 39 51 86q33 -29 80 -29q76 0 76 64q0 43 -71 92t-71 94q0 37 31 115q-254 35 -402.5 222t-148.5 470z" />
<glyph unicode="&#xc8;" horiz-adv-x="1005" d="M115 1346q223 18 456 18q303 0 342 -31q18 -18 19 -65q0 -61 -17 -111q-113 43 -356 43q-98 0 -209 -6q8 -80 8 -383h154q164 0 233 8q8 -18 9 -65q0 -57 -20.5 -79t-65.5 -24q-51 -2 -138 -2h-172q0 -408 15 -489q86 -4 141 -4q328 0 424 45q16 -47 16 -109 q0 -47 -18 -65q-39 -31 -350 -31q-279 0 -340 4q-63 2 -85 27.5t-22 89.5q0 39 2 168t2 198v398q1 287 -28 465zM182 1749q0 72 107 125q82 -88 172 -155.5t130 -98.5t40 -64q0 -47 -66 -90q-63 47 -168.5 103.5t-160 96.5t-54.5 83z" />
<glyph unicode="&#xc9;" horiz-adv-x="1005" d="M115 1346q223 18 456 18q303 0 342 -31q18 -18 19 -65q0 -61 -17 -111q-113 43 -356 43q-98 0 -209 -6q8 -80 8 -383h154q164 0 233 8q8 -18 9 -65q0 -57 -20.5 -79t-65.5 -24q-51 -2 -138 -2h-172q0 -408 15 -489q86 -4 141 -4q328 0 424 45q16 -47 16 -109 q0 -47 -18 -65q-39 -31 -350 -31q-279 0 -340 4q-63 2 -85 27.5t-22 89.5q0 39 2 168t2 198v398q1 287 -28 465zM395 1567q0 27 20.5 46t55.5 39.5t106.5 83t151.5 150.5q111 -57 111 -121q0 -49 -56 -88q-37 -29 -154.5 -94t-172.5 -117q-62 56 -62 101z" />
<glyph unicode="&#xca;" horiz-adv-x="1005" d="M115 1346q223 18 456 18q303 0 342 -31q18 -18 19 -65q0 -61 -17 -111q-113 43 -356 43q-98 0 -209 -6q8 -80 8 -383h154q164 0 233 8q8 -18 9 -65q0 -57 -20.5 -79t-65.5 -24q-51 -2 -138 -2h-172q0 -408 15 -489q86 -4 141 -4q328 0 424 45q16 -47 16 -109 q0 -47 -18 -65q-39 -31 -350 -31q-279 0 -340 4q-63 2 -85 27.5t-22 89.5q0 39 2 168t2 198v398q1 287 -28 465zM203 1536q152 178 319 297q281 -195 281 -283q0 -43 -76 -92q-78 96 -207 178q-178 -154 -233 -153q-45 0 -84 53z" />
<glyph unicode="&#xcb;" horiz-adv-x="1005" d="M115 1346q223 18 456 18q303 0 342 -31q18 -18 19 -65q0 -61 -17 -111q-113 43 -356 43q-98 0 -209 -6q8 -80 8 -383h154q164 0 233 8q8 -18 9 -65q0 -57 -20.5 -79t-65.5 -24q-51 -2 -138 -2h-172q0 -408 15 -489q86 -4 141 -4q328 0 424 45q16 -47 16 -109 q0 -47 -18 -65q-39 -31 -350 -31q-279 0 -340 4q-63 2 -85 27.5t-22 89.5q0 39 2 168t2 198v398q1 287 -28 465zM186 1604q0 61 45 103t107 42q59 0 102 -42t43 -103.5t-45 -103.5t-104 -42q-61 0 -104.5 41.5t-43.5 104.5zM575 1604q0 61 45.5 103t106.5 42q59 0 102 -42 t43 -103.5t-45 -103.5t-104 -42q-61 0 -104.5 41.5t-43.5 104.5z" />
<glyph unicode="&#xcc;" horiz-adv-x="505" d="M-59 1749q0 72 106 125q82 -88 172 -155.5t130 -98.5t40 -64q0 -47 -65 -90q-63 47 -169 103.5t-160 96.5t-54 83zM123 1354q61 10 108 10q137 0 138 -78q0 -12 -4.5 -82.5t-8.5 -176t-4 -200.5v-411q0 -272 39 -402q-57 -20 -127 -20q-76 0 -103.5 26.5t-27.5 90.5 q0 33 2 161.5t2 200.5v410q0 285 -14 471z" />
<glyph unicode="&#xcd;" horiz-adv-x="499" d="M115 1567q0 27 20.5 46t55 39.5t106.5 83t152 150.5q111 -57 110 -121q0 -49 -55 -88q-37 -29 -155 -94t-173 -117q-61 56 -61 101zM141 1354q61 10 109 10q137 0 137 -78q0 -12 -4 -82.5t-8 -176t-4 -200.5v-411q0 -272 39 -402q-57 -20 -127 -20q-76 0 -103.5 26.5 t-27.5 90.5q0 33 2 161.5t2 200.5v410q-1 285 -15 471z" />
<glyph unicode="&#xce;" horiz-adv-x="534" d="M-41 1536q152 178 320 297q281 -195 280 -283q0 -43 -76 -92q-78 96 -207 178q-178 -154 -233 -153q-43 0 -84 53zM145 1354q61 10 109 10q137 0 137 -78q0 -12 -4 -82.5t-8 -176t-4 -200.5v-411q0 -272 39 -402q-57 -20 -127 -20q-76 0 -103.5 26.5t-27.5 90.5 q0 33 2 161.5t2 200.5v410q-1 285 -15 471z" />
<glyph unicode="&#xcf;" horiz-adv-x="518" d="M-104 1604q0 61 45 103t106 42q59 0 102.5 -42t43.5 -103.5t-45.5 -103.5t-104.5 -42q-61 0 -104 41.5t-43 104.5zM127 1354q61 10 109 10q137 0 137 -78q0 -12 -4 -82.5t-8.5 -176t-4.5 -200.5v-411q0 -272 39 -402q-57 -20 -127 -20q-76 0 -103.5 26.5t-27.5 90.5 q0 33 2 161.5t2 200.5v410q0 285 -14 471zM285 1604q0 61 45 103t106 42q59 0 102.5 -42t43.5 -103.5t-45 -103.5t-105 -42q-61 0 -104 41.5t-43 104.5z" />
<glyph unicode="&#xd0;" horiz-adv-x="1333" d="M-29 713q0 90 92 94q27 2 111 2q0 332 -27 545q129 25 330 24q166 0 298 -34.5t241.5 -111.5t170 -216t60.5 -334q0 -307 -170 -504.5t-485 -197.5q-291 0 -451 129q27 188 31 538q-127 0 -190 -8q-11 27 -11 74zM358 215q98 -72 244 -72q115 0 199 46.5t128 123 t64.5 159.5t20.5 173q0 287 -134.5 431.5t-383.5 144.5q-39 0 -117 -9q8 -133 8 -313v-90h92q170 0 234 8q8 -33 8 -69q0 -96 -90 -99q-59 -2 -248 -2q-9 -276 -25 -432z" />
<glyph unicode="&#xd1;" horiz-adv-x="1265" d="M115 1350q51 16 125 16q94 0 147 -59q96 -106 285.5 -409.5t290.5 -512.5q-16 233 -17 475q0 305 -14 498q47 6 84 6q135 0 135 -78q0 -12 -4 -82.5t-9 -176t-5 -200.5v-350q0 -289 14 -475q-41 -8 -90 -8q-102 0 -137 55q-96 158 -295 494t-297 495l10 -514 q6 -414 41 -514q-45 -16 -98 -16q-76 0 -103.5 26.5t-27.5 90.5q0 33 2 161.5t2 200.5v410q0 342 -39 467zM324 1544q0 59 68.5 112.5t152.5 53.5q49 0 126 -45t99 -45q39 0 104 92q72 -20 72 -65q0 -61 -68.5 -119t-150.5 -58q-59 0 -137 45.5t-92 45.5q-29 0 -105 -95 q-69 31 -69 78z" />
<glyph unicode="&#xd2;" horiz-adv-x="1466" d="M86 678q0 322 175 511t470 189q299 0 475 -189.5t176 -510.5q0 -317 -177 -507.5t-474 -190.5q-295 0 -470 190.5t-175 507.5zM319 737q0 -154 38 -282.5t135.5 -221t240.5 -92.5q199 0 307.5 139.5t108.5 362.5q0 147 -38 271t-135 213.5t-241 89.5q-190 0 -303 -134.5 t-113 -345.5zM408 1749q0 72 106 125q82 -88 172 -155.5t130 -98.5t40 -64q0 -47 -65 -90q-63 47 -169 103.5t-160 96.5t-54 83z" />
<glyph unicode="&#xd3;" horiz-adv-x="1466" d="M86 678q0 322 175 511t470 189q299 0 475 -189.5t176 -510.5q0 -317 -177 -507.5t-474 -190.5q-295 0 -470 190.5t-175 507.5zM319 737q0 -154 38 -282.5t135.5 -221t240.5 -92.5q199 0 307.5 139.5t108.5 362.5q0 147 -38 271t-135 213.5t-241 89.5q-190 0 -303 -134.5 t-113 -345.5zM614 1567q0 27 20.5 46t55.5 39.5t106.5 83t151.5 150.5q111 -57 111 -121q0 -49 -55 -88q-37 -29 -155 -94t-173 -117q-62 56 -62 101z" />
<glyph unicode="&#xd4;" horiz-adv-x="1466" d="M86 678q0 322 175 511t470 189q299 0 475 -189.5t176 -510.5q0 -317 -177 -507.5t-474 -190.5q-295 0 -470 190.5t-175 507.5zM319 737q0 -154 38 -282.5t135.5 -221t240.5 -92.5q199 0 307.5 139.5t108.5 362.5q0 147 -38 271t-135 213.5t-241 89.5q-190 0 -303 -134.5 t-113 -345.5zM424 1536q152 178 319 297q281 -195 281 -283q0 -43 -76 -92q-78 96 -207 178q-178 -154 -233 -153q-45 0 -84 53z" />
<glyph unicode="&#xd5;" horiz-adv-x="1466" d="M86 678q0 322 175 511t470 189q299 0 475 -189.5t176 -510.5q0 -317 -177 -507.5t-474 -190.5q-295 0 -470 190.5t-175 507.5zM319 737q0 -154 38 -282.5t135.5 -221t240.5 -92.5q199 0 307.5 139.5t108.5 362.5q0 147 -38 271t-135 213.5t-241 89.5q-190 0 -303 -134.5 t-113 -345.5zM422 1544q0 59 68.5 112.5t152.5 53.5q49 0 126 -45t99 -45q39 0 105 92q72 -20 71 -65q0 -61 -68.5 -119t-150.5 -58q-59 0 -137 45.5t-92 45.5q-29 0 -104 -95q-70 31 -70 78z" />
<glyph unicode="&#xd6;" horiz-adv-x="1466" d="M86 678q0 322 175 511t470 189q299 0 475 -189.5t176 -510.5q0 -317 -177 -507.5t-474 -190.5q-295 0 -470 190.5t-175 507.5zM319 737q0 -154 38 -282.5t135.5 -221t240.5 -92.5q199 0 307.5 139.5t108.5 362.5q0 147 -38 271t-135 213.5t-241 89.5q-190 0 -303 -134.5 t-113 -345.5zM389 1604q0 61 45 103t107 42q59 0 102 -42t43 -103.5t-45 -103.5t-104 -42q-61 0 -104.5 41.5t-43.5 104.5zM778 1604q0 61 45 103t107 42q59 0 102 -42t43 -103.5t-45 -103.5t-104 -42q-61 0 -104.5 41.5t-43.5 104.5z" />
<glyph unicode="&#xd7;" d="M100 831q59 94 136 95q45 0 71 -27q33 -33 240 -260q201 201 299 324q45 -25 83 -62t38 -67q0 -29 -31 -60q-29 -27 -135.5 -127t-136.5 -127q209 -209 331 -307q-49 -92 -137 -92q-47 0 -70 22q-20 20 -117.5 126t-125.5 134q-162 -160 -301 -327q-39 27 -59.5 42 t-40 40.5t-19.5 52.5t31 57q25 27 274 254q-221 211 -330 309z" />
<glyph unicode="&#xd8;" horiz-adv-x="1466" d="M86 678q0 322 175 511t470 189q160 0 295 -61l49 90q20 37 58 117q94 -10 94 -64q0 -23 -45 -102l-56 -101q256 -188 256 -579q0 -317 -177 -507.5t-474 -190.5q-154 0 -278 53l-50 -88q-45 -82 -57 -117q-94 10 -94 63q0 20 51 113l47 86q-264 187 -264 588zM319 737 q0 -301 132 -463l487 883q-90 59 -203 60q-190 0 -303 -134.5t-113 -345.5zM541 195q82 -53 192 -54q199 0 307.5 139.5t108.5 362.5q0 270 -123 432z" />
<glyph unicode="&#xd9;" horiz-adv-x="1316" d="M125 1348q53 16 121 16q78 0 113.5 -23.5t35.5 -80.5q0 -84 -15 -376t-15 -454q0 -139 71.5 -205.5t167.5 -66.5q88 0 185.5 45t156.5 108v65q0 50 1 178t1 329q0 287 -14 473q63 8 113 8q133 0 133 -78q0 -4 -4.5 -75.5t-8.5 -224t-4 -353.5q0 -317 6.5 -425t32.5 -198 q-45 -16 -127 -16q-74 0 -102.5 25.5t-28.5 95.5v39q-80 -78 -191.5 -126t-205.5 -48q-186 0 -296 91t-110 322q0 121 9.5 328t9.5 305q0 195 -35 322zM338 1749q0 72 106 125q82 -88 172.5 -155.5t130 -98.5t39.5 -64q0 -47 -65 -90q-63 47 -169 103.5t-160 96.5t-54 83z " />
<glyph unicode="&#xda;" horiz-adv-x="1316" d="M125 1348q53 16 121 16q78 0 113.5 -23.5t35.5 -80.5q0 -84 -15 -376t-15 -454q0 -139 71.5 -205.5t167.5 -66.5q88 0 185.5 45t156.5 108v65q0 50 1 178t1 329q0 287 -14 473q63 8 113 8q133 0 133 -78q0 -4 -4.5 -75.5t-8.5 -224t-4 -353.5q0 -317 6.5 -425t32.5 -198 q-45 -16 -127 -16q-74 0 -102.5 25.5t-28.5 95.5v39q-80 -78 -191.5 -126t-205.5 -48q-186 0 -296 91t-110 322q0 121 9.5 328t9.5 305q0 195 -35 322zM559 1567q0 27 20.5 46t55.5 39.5t106.5 83t151.5 150.5q111 -57 111 -121q0 -49 -56 -88q-37 -29 -154.5 -94 t-172.5 -117q-62 56 -62 101z" />
<glyph unicode="&#xdb;" horiz-adv-x="1316" d="M125 1348q53 16 121 16q78 0 113.5 -23.5t35.5 -80.5q0 -84 -15 -376t-15 -454q0 -139 71.5 -205.5t167.5 -66.5q88 0 185.5 45t156.5 108v65q0 50 1 178t1 329q0 287 -14 473q63 8 113 8q133 0 133 -78q0 -4 -4.5 -75.5t-8.5 -224t-4 -353.5q0 -317 6.5 -425t32.5 -198 q-45 -16 -127 -16q-74 0 -102.5 25.5t-28.5 95.5v39q-80 -78 -191.5 -126t-205.5 -48q-186 0 -296 91t-110 322q0 121 9.5 328t9.5 305q0 195 -35 322zM356 1536q152 178 320 297q281 -195 280 -283q0 -43 -75 -92q-78 96 -207 178q-178 -154 -234 -153q-43 0 -84 53z" />
<glyph unicode="&#xdc;" horiz-adv-x="1316" d="M125 1348q53 16 121 16q78 0 113.5 -23.5t35.5 -80.5q0 -84 -15 -376t-15 -454q0 -139 71.5 -205.5t167.5 -66.5q88 0 185.5 45t156.5 108v65q0 50 1 178t1 329q0 287 -14 473q63 8 113 8q133 0 133 -78q0 -4 -4.5 -75.5t-8.5 -224t-4 -353.5q0 -317 6.5 -425t32.5 -198 q-45 -16 -127 -16q-74 0 -102.5 25.5t-28.5 95.5v39q-80 -78 -191.5 -126t-205.5 -48q-186 0 -296 91t-110 322q0 121 9.5 328t9.5 305q0 195 -35 322zM344 1604q0 61 45 103t107 42q59 0 102 -42t43 -103.5t-45 -103.5t-104 -42q-61 0 -104.5 41.5t-43.5 104.5zM733 1604 q0 61 45 103t107 42q59 0 102 -42t43 -103.5t-45 -103.5t-104 -42q-61 0 -104.5 41.5t-43.5 104.5z" />
<glyph unicode="&#xdd;" horiz-adv-x="1038" d="M-18 1257q33 43 84 76t98 33q72 0 121 -70q152 -223 282 -505q94 145 176 329.5t93 255.5q195 -8 194 -114q0 -72 -132 -273t-263 -360v-213q0 -272 39 -402q-57 -20 -127 -20q-76 0 -103.5 26.5t-27.5 90.5q0 33 2 161.5t2 200.5v148q-288 536 -438 636zM428 1567 q0 27 20.5 46t55.5 39.5t106.5 83t151.5 150.5q111 -57 110 -121q0 -49 -55 -88q-37 -29 -154.5 -94t-173.5 -117q-61 56 -61 101z" />
<glyph unicode="&#xde;" horiz-adv-x="1058" d="M115 1354q61 10 108 10q137 0 137 -78l-8 -135q23 2 70 2q575 0 575 -453q0 -219 -123.5 -333.5t-291.5 -114.5q-137 0 -238 65q4 -193 39 -303q-57 -20 -127 -20q-76 0 -103.5 26.5t-27.5 90.5q0 33 2 161.5t2 200.5v410q0 285 -14 471zM344 449q68 -35 172 -35 q117 0 182.5 74.5t65.5 201.5q0 174 -74 239.5t-229 65.5q-37 0 -115 -8q-2 -51 -2 -538z" />
<glyph unicode="&#xdf;" horiz-adv-x="1099" d="M113 23q39 127 39 397v524q0 215 113.5 325.5t269.5 110.5q129 0 220 -63.5t91 -173.5q0 -98 -37 -165t-80 -93.5t-80 -60t-37 -70.5q0 -49 64.5 -100.5t140.5 -92.5t140.5 -117.5t64.5 -173.5q0 -115 -92 -202.5t-223 -87.5q-106 0 -187.5 51t-81.5 125q0 41 39 65.5 t115 46.5q14 -70 51 -106.5t78 -36.5q37 0 64.5 36t27.5 85q0 59 -40 110.5t-97.5 89t-114.5 76.5t-97 96.5t-40 126.5q0 51 34 94.5t72.5 70t72.5 77.5t34 117q0 63 -32 97t-83 34q-70 0 -120 -58.5t-50 -177.5v-591q0 -35 1 -125t1 -168q0 -66 -28.5 -93.5t-102.5 -27.5 q-49 0 -110 29z" />
<glyph unicode="&#xe0;" horiz-adv-x="978" d="M78 270q0 115 49 170.5t131 81.5q123 39 371 41q0 70 -3 107t-16.5 84t-45.5 68.5t-85 21.5q-68 0 -128 -44t-87 -122q-182 2 -182 108q0 88 124 147.5t281 59.5q188 0 275.5 -77.5t87.5 -278.5q0 -6 -2 -96t-2 -176q0 -233 39 -351q-59 -23 -117 -22q-115 0 -137 94 q-123 -106 -277 -106q-119 0 -197.5 73.5t-78.5 216.5zM156 1354q0 72 106 125q82 -88 172 -156t130 -98.5t40 -63.5q0 -47 -65 -90q-63 47 -169 103.5t-160 96.5t-54 83zM301 285q0 -82 41 -121t104 -39q104 0 179 78q-4 27 -4 90q0 94 4 145q-61 -8 -89 -12t-75 -12 t-68.5 -18.5t-46 -25t-35 -35.5t-10.5 -50z" />
<glyph unicode="&#xe1;" horiz-adv-x="978" d="M78 270q0 115 49 170.5t131 81.5q123 39 371 41q0 70 -3 107t-16.5 84t-45.5 68.5t-85 21.5q-68 0 -128 -44t-87 -122q-182 2 -182 108q0 88 124 147.5t281 59.5q188 0 275.5 -77.5t87.5 -278.5q0 -6 -2 -96t-2 -176q0 -233 39 -351q-59 -23 -117 -22q-115 0 -137 94 q-123 -106 -277 -106q-119 0 -197.5 73.5t-78.5 216.5zM301 285q0 -82 41 -121t104 -39q104 0 179 78q-4 27 -4 90q0 94 4 145q-61 -8 -89 -12t-75 -12t-68.5 -18.5t-46 -25t-35 -35.5t-10.5 -50zM362 1171q0 27 20.5 46.5t55.5 40t106.5 83t151.5 150.5q111 -57 111 -121 q0 -49 -55 -88q-37 -29 -155 -94.5t-173 -116.5q-62 55 -62 100z" />
<glyph unicode="&#xe2;" horiz-adv-x="978" d="M78 270q0 115 49 170.5t131 81.5q123 39 371 41q0 70 -3 107t-16.5 84t-45.5 68.5t-85 21.5q-68 0 -128 -44t-87 -122q-182 2 -182 108q0 88 124 147.5t281 59.5q188 0 275.5 -77.5t87.5 -278.5q0 -6 -2 -96t-2 -176q0 -233 39 -351q-59 -23 -117 -22q-115 0 -137 94 q-123 -106 -277 -106q-119 0 -197.5 73.5t-78.5 216.5zM162 1141q152 178 319 297q281 -195 281 -283q0 -43 -76 -92q-78 96 -207 178q-178 -154 -233 -154q-45 1 -84 54zM301 285q0 -82 41 -121t104 -39q104 0 179 78q-4 27 -4 90q0 94 4 145q-61 -8 -89 -12t-75 -12 t-68.5 -18.5t-46 -25t-35 -35.5t-10.5 -50z" />
<glyph unicode="&#xe3;" horiz-adv-x="978" d="M78 270q0 115 49 170.5t131 81.5q123 39 371 41q0 70 -3 107t-16.5 84t-45.5 68.5t-85 21.5q-68 0 -128 -44t-87 -122q-182 2 -182 108q0 88 124 147.5t281 59.5q188 0 275.5 -77.5t87.5 -278.5q0 -6 -2 -96t-2 -176q0 -233 39 -351q-59 -23 -117 -22q-115 0 -137 94 q-123 -106 -277 -106q-119 0 -197.5 73.5t-78.5 216.5zM172 1161q0 59 68.5 112.5t152.5 53.5q49 0 126 -45t99 -45q39 0 105 92q72 -20 72 -65q0 -61 -69 -119t-151 -58q-59 0 -137 45.5t-92 45.5q-29 0 -104 -95q-70 31 -70 78zM301 285q0 -82 41 -121t104 -39 q104 0 179 78q-4 27 -4 90q0 94 4 145q-61 -8 -89 -12t-75 -12t-68.5 -18.5t-46 -25t-35 -35.5t-10.5 -50z" />
<glyph unicode="&#xe4;" horiz-adv-x="978" d="M78 270q0 115 49 170.5t131 81.5q123 39 371 41q0 70 -3 107t-16.5 84t-45.5 68.5t-85 21.5q-68 0 -128 -44t-87 -122q-182 2 -182 108q0 88 124 147.5t281 59.5q188 0 275.5 -77.5t87.5 -278.5q0 -6 -2 -96t-2 -176q0 -233 39 -351q-59 -23 -117 -22q-115 0 -137 94 q-123 -106 -277 -106q-119 0 -197.5 73.5t-78.5 216.5zM150 1210q0 61 45 103.5t106 42.5q59 0 102 -42t43 -103.5t-45 -103.5t-104 -42q-61 0 -104 41t-43 104zM301 285q0 -82 41 -121t104 -39q104 0 179 78q-4 27 -4 90q0 94 4 145q-61 -8 -89 -12t-75 -12t-68.5 -18.5 t-46 -25t-35 -35.5t-10.5 -50zM539 1210q0 61 45 103.5t106 42.5q59 0 102.5 -42t43.5 -103.5t-45.5 -103.5t-104.5 -42q-61 0 -104 41t-43 104z" />
<glyph unicode="&#xe5;" horiz-adv-x="978" d="M78 270q0 115 49 170.5t131 81.5q123 39 371 41q0 70 -3 107t-16.5 84t-45.5 68.5t-85 21.5q-68 0 -128 -44t-87 -122q-182 2 -182 108q0 88 124 147.5t281 59.5q188 0 275.5 -77.5t87.5 -278.5q0 -6 -2 -96t-2 -176q0 -233 39 -351q-59 -23 -117 -22q-115 0 -137 94 q-123 -106 -277 -106q-119 0 -197.5 73.5t-78.5 216.5zM268 1259.5q0 88.5 54.5 141.5t140.5 53t138 -53t52 -141.5t-52 -141.5t-138 -53t-140.5 53t-54.5 141.5zM301 285q0 -82 41 -121t104 -39q104 0 179 78q-4 27 -4 90q0 94 4 145q-61 -8 -89 -12t-75 -12t-68.5 -18.5 t-46 -25t-35 -35.5t-10.5 -50zM385 1268q0 -45 21.5 -75t56.5 -30q74 0 74 86q0 47 -19.5 77t-54.5 30q-78 0 -78 -88z" />
<glyph unicode="&#xe6;" horiz-adv-x="1542" d="M78 270q0 115 49 170.5t131 81.5q123 39 371 41q0 70 -3 107t-16.5 84t-45.5 68.5t-85 21.5q-68 0 -128 -44t-87 -122q-182 2 -182 108q0 88 124 147.5t281 59.5q115 0 189 -29.5t117 -103.5q125 133 317 133q158 0 255 -86t97 -205q0 -96 -35.5 -158.5t-105.5 -91 t-141.5 -39t-175.5 -10.5q-55 0 -150 5q20 -145 93 -213t179 -68q55 0 114.5 28.5t88.5 82.5q100 -53 101 -115q0 -70 -96.5 -106.5t-215.5 -36.5q-113 0 -218 45t-175 135q-176 -180 -371 -180q-119 0 -197.5 73.5t-78.5 216.5zM301 285q0 -82 41 -121t104 -39 q117 0 226 121q-35 72 -47 194q-82 -10 -127 -18t-97.5 -25.5t-76 -45t-23.5 -66.5zM848 537q131 0 192 6q199 25 199 155q0 59 -42 102.5t-105 43.5q-96 0 -164 -73.5t-80 -233.5z" />
<glyph unicode="&#xe7;" horiz-adv-x="950" d="M78 477q0 254 147.5 385t335.5 131q115 0 218.5 -54t103.5 -151q0 -43 -43 -69.5t-117 -34.5q-16 74 -73.5 115t-117.5 41q-98 0 -163.5 -94.5t-65.5 -245.5q0 -195 77 -284t200 -89q55 0 114.5 28.5t87.5 82.5q100 -53 101 -115q0 -70 -96.5 -106.5t-215.5 -36.5 q-20 0 -57 4q-14 -43 -14 -64q0 -12 47 -39q121 -63 121 -166q0 -84 -78 -149.5t-195 -65.5q-104 0 -104 66q0 39 51 86q33 -29 80 -29q76 0 76 64q0 43 -71 92t-71 94t39 135q-139 47 -228 165t-89 304z" />
<glyph unicode="&#xe8;" horiz-adv-x="993" d="M78 473q0 252 144.5 386t340.5 134q158 0 255 -86t97 -205q0 -96 -35.5 -158.5t-105 -91t-141.5 -39t-176 -10.5q-55 0 -150 5q20 -145 93 -213t180 -68q55 0 114.5 28.5t87.5 82.5q100 -53 101 -115q0 -70 -96.5 -106.5t-215.5 -36.5q-193 0 -343 126.5t-150 366.5z M231 1354q0 72 107 125q82 -88 172 -156t130 -98.5t40 -63.5q0 -47 -66 -90q-63 47 -168.5 103.5t-160 96.5t-54.5 83zM301 537q131 0 193 6q199 25 198 155q0 59 -42 102.5t-105 43.5q-96 0 -164 -73.5t-80 -233.5z" />
<glyph unicode="&#xe9;" horiz-adv-x="993" d="M78 473q0 252 144.5 386t340.5 134q158 0 255 -86t97 -205q0 -96 -35.5 -158.5t-105 -91t-141.5 -39t-176 -10.5q-55 0 -150 5q20 -145 93 -213t180 -68q55 0 114.5 28.5t87.5 82.5q100 -53 101 -115q0 -70 -96.5 -106.5t-215.5 -36.5q-193 0 -343 126.5t-150 366.5z M301 537q131 0 193 6q199 25 198 155q0 59 -42 102.5t-105 43.5q-96 0 -164 -73.5t-80 -233.5zM397 1171q0 27 20.5 46.5t55.5 40t106.5 83t151.5 150.5q111 -57 111 -121q0 -49 -56 -88q-37 -29 -154.5 -94.5t-172.5 -116.5q-62 55 -62 100z" />
<glyph unicode="&#xea;" horiz-adv-x="993" d="M78 473q0 252 144.5 386t340.5 134q158 0 255 -86t97 -205q0 -96 -35.5 -158.5t-105 -91t-141.5 -39t-176 -10.5q-55 0 -150 5q20 -145 93 -213t180 -68q55 0 114.5 28.5t87.5 82.5q100 -53 101 -115q0 -70 -96.5 -106.5t-215.5 -36.5q-193 0 -343 126.5t-150 366.5z M236 1141q152 178 319 297q281 -195 281 -283q0 -43 -76 -92q-78 96 -207 178q-178 -154 -234 -154q-44 1 -83 54zM301 537q131 0 193 6q199 25 198 155q0 59 -42 102.5t-105 43.5q-96 0 -164 -73.5t-80 -233.5z" />
<glyph unicode="&#xeb;" horiz-adv-x="993" d="M78 473q0 252 144.5 386t340.5 134q158 0 255 -86t97 -205q0 -96 -35.5 -158.5t-105 -91t-141.5 -39t-176 -10.5q-55 0 -150 5q20 -145 93 -213t180 -68q55 0 114.5 28.5t87.5 82.5q100 -53 101 -115q0 -70 -96.5 -106.5t-215.5 -36.5q-193 0 -343 126.5t-150 366.5z M225 1210q0 61 45 103.5t107 42.5q59 0 102 -42t43 -103.5t-45 -103.5t-104 -42q-61 0 -104.5 41t-43.5 104zM301 537q131 0 193 6q199 25 198 155q0 59 -42 102.5t-105 43.5q-96 0 -164 -73.5t-80 -233.5zM614 1210q0 61 45.5 103.5t106.5 42.5q59 0 102 -42t43 -103.5 t-45 -103.5t-104 -42q-61 0 -104.5 41t-43.5 104z" />
<glyph unicode="&#xec;" horiz-adv-x="509" d="M-12 1354q0 72 106 125q82 -88 172 -156t130 -98.5t40 -63.5q0 -47 -65 -90q-63 47 -169 103.5t-160 96.5t-54 83zM131 971q49 8 107 8q147 0 147 -109q0 -12 -6 -82.5t-11.5 -175t-5.5 -198.5q0 -274 54 -400q-51 -23 -117 -22q-90 0 -122 37t-32 125q0 33 2.5 158.5 t2.5 193.5q-1 297 -19 465z" />
<glyph unicode="&#xed;" horiz-adv-x="509" d="M92 1171q0 27 20.5 46.5t55.5 40t106.5 83t151.5 150.5q111 -57 111 -121q0 -49 -56 -88q-37 -29 -154.5 -94.5t-172.5 -116.5q-62 55 -62 100zM131 971q49 8 107 8q147 0 147 -109q0 -12 -6 -82.5t-11.5 -175t-5.5 -198.5q0 -274 54 -400q-51 -23 -117 -22 q-90 0 -122 37t-32 125q0 33 2.5 158.5t2.5 193.5q-1 297 -19 465z" />
<glyph unicode="&#xee;" horiz-adv-x="509" d="M-51 1141q152 178 319 297q281 -195 281 -283q0 -43 -76 -92q-78 96 -207 178q-178 -154 -233 -154q-45 1 -84 54zM131 971q49 8 107 8q147 0 147 -109q0 -12 -6 -82.5t-11.5 -175t-5.5 -198.5q0 -274 54 -400q-51 -23 -117 -22q-90 0 -122 37t-32 125q0 33 2.5 158.5 t2.5 193.5q-1 297 -19 465z" />
<glyph unicode="&#xef;" horiz-adv-x="509" d="M-80 1210q0 61 45 103.5t107 42.5q59 0 102 -42t43 -103.5t-45 -103.5t-104 -42q-61 0 -104.5 41t-43.5 104zM131 971q49 8 107 8q147 0 147 -109q0 -12 -6 -82.5t-11.5 -175t-5.5 -198.5q0 -274 54 -400q-51 -23 -117 -22q-90 0 -122 37t-32 125q0 33 2.5 158.5 t2.5 193.5q-1 297 -19 465zM309 1210q0 61 45 103.5t107 42.5q59 0 102 -42t43 -103.5t-45 -103.5t-104 -42q-61 0 -104.5 41t-43.5 104z" />
<glyph unicode="&#xf0;" d="M78 485.5q0 231.5 123 369.5t321 138q160 0 252 -100q-63 182 -211 287q-53 -37 -121.5 -88.5t-85.5 -63.5q-70 33 -69 86q0 29 32 55q51 33 121 80q-117 51 -250 70q-4 25 -4 39q0 72 54 72q51 0 149 -26t178 -65q147 104 213 160q59 -39 60 -94q0 -37 -35 -59 q-25 -18 -66 -45t-49 -33q176 -135 248 -322.5t72 -462.5q0 -229 -128 -366t-339 -137q-209 0 -337 137t-128 368.5zM276 502q0 -172 71 -286t196 -114q127 0 196.5 95.5t69.5 251.5q0 170 -71.5 285.5t-194.5 115.5q-127 0 -197 -95t-70 -253z" />
<glyph unicode="&#xf1;" horiz-adv-x="1103" d="M104 956q49 23 107 23q59 0 92 -18.5t41 -81.5q145 115 328 114q125 0 202.5 -73.5t77.5 -237.5q0 -23 -3 -160t-3 -200q0 -168 53 -304q-63 -27 -114 -26q-84 0 -119 34.5t-35 131.5q0 106 4 256.5t4 208.5q0 113 -45 168t-116 55q-109 0 -226 -107q4 -274 4 -399 q0 -197 13 -336q-55 -8 -103 -8q-133 0 -133 82q0 59 5 192t5 240q0 340 -39 446zM240 1161q0 59 68.5 112.5t152.5 53.5q49 0 126 -45t99 -45q39 0 105 92q72 -20 71 -65q0 -61 -68.5 -119t-150.5 -58q-59 0 -137 45.5t-92 45.5q-29 0 -105 -95q-69 31 -69 78z" />
<glyph unicode="&#xf2;" horiz-adv-x="1105" d="M78 487.5q0 231.5 130 368.5t343 137q215 0 346 -137t131 -368.5t-131 -369.5t-346 -138q-213 0 -343 138t-130 369.5zM227 1354q0 72 107 125q82 -88 172 -156t130 -98.5t40 -63.5q0 -47 -66 -90q-63 47 -168.5 103.5t-160 96.5t-54.5 83zM301 514q0 -166 66.5 -274.5 t183.5 -108.5q121 0 187.5 90t66.5 240q0 164 -68.5 273.5t-185.5 109.5q-119 0 -184.5 -90t-65.5 -240z" />
<glyph unicode="&#xf3;" horiz-adv-x="1105" d="M78 487.5q0 231.5 130 368.5t343 137q215 0 346 -137t131 -368.5t-131 -369.5t-346 -138q-213 0 -343 138t-130 369.5zM301 514q0 -166 66.5 -274.5t183.5 -108.5q121 0 187.5 90t66.5 240q0 164 -68.5 273.5t-185.5 109.5q-119 0 -184.5 -90t-65.5 -240zM434 1171 q0 27 20.5 46.5t55.5 40t106.5 83t151.5 150.5q111 -57 111 -121q0 -49 -56 -88q-37 -29 -154.5 -94.5t-172.5 -116.5q-62 55 -62 100z" />
<glyph unicode="&#xf4;" horiz-adv-x="1105" d="M78 487.5q0 231.5 130 368.5t343 137q215 0 346 -137t131 -368.5t-131 -369.5t-346 -138q-213 0 -343 138t-130 369.5zM250 1141q152 178 319 297q281 -195 281 -283q0 -43 -76 -92q-78 96 -207 178q-178 -154 -233 -154q-43 1 -84 54zM301 514q0 -166 66.5 -274.5 t183.5 -108.5q121 0 187.5 90t66.5 240q0 164 -68.5 273.5t-185.5 109.5q-119 0 -184.5 -90t-65.5 -240z" />
<glyph unicode="&#xf5;" horiz-adv-x="1105" d="M78 487.5q0 231.5 130 368.5t343 137q215 0 346 -137t131 -368.5t-131 -369.5t-346 -138q-213 0 -343 138t-130 369.5zM240 1161q0 59 68.5 112.5t152.5 53.5q49 0 126 -45t99 -45q39 0 105 92q72 -20 71 -65q0 -61 -68.5 -119t-150.5 -58q-59 0 -137 45.5t-92 45.5 q-29 0 -105 -95q-69 31 -69 78zM301 514q0 -166 66.5 -274.5t183.5 -108.5q121 0 187.5 90t66.5 240q0 164 -68.5 273.5t-185.5 109.5q-119 0 -184.5 -90t-65.5 -240z" />
<glyph unicode="&#xf6;" horiz-adv-x="1105" d="M78 487.5q0 231.5 130 368.5t343 137q215 0 346 -137t131 -368.5t-131 -369.5t-346 -138q-213 0 -343 138t-130 369.5zM221 1210q0 61 45 103.5t107 42.5q59 0 102 -42t43 -103.5t-45 -103.5t-104 -42q-61 0 -104.5 41t-43.5 104zM301 514q0 -166 66.5 -274.5 t183.5 -108.5q121 0 187.5 90t66.5 240q0 164 -68.5 273.5t-185.5 109.5q-119 0 -184.5 -90t-65.5 -240zM610 1210q0 61 45 103.5t107 42.5q59 0 102 -42t43 -103.5t-45 -103.5t-104 -42q-61 0 -104.5 41t-43.5 104z" />
<glyph unicode="&#xf7;" d="M70 508q0 39 25.5 69.5t80.5 30.5q6 0 123 -7t213 -7q260 0 410 18q12 -35 12 -80q0 -41 -30 -70.5t-77 -29.5q-33 0 -147.5 8.5t-163.5 8.5q-215 0 -436 -21q-10 51 -10 80zM395 176q0 53 38 92t89 39t87 -39t36 -92q0 -57 -36 -94t-87 -37q-53 0 -90 37t-37 94z M395 864q0 55 37 93t90 38q51 0 87 -37.5t36 -93.5q0 -57 -36 -93t-87 -36q-53 0 -90 36t-37 93z" />
<glyph unicode="&#xf8;" horiz-adv-x="1105" d="M78 487q0 231 130 368.5t343 137.5q106 0 201 -39l45 82q20 37 57 117q94 -10 94 -63q0 -23 -45 -103l-51 -92q176 -137 176 -408q0 -231 -131 -369t-346 -138q-98 0 -186 32l-39 -73q-45 -82 -58 -117q-94 10 -94 63q0 20 51 113l39 70q-186 140 -186 419zM301 514 q0 -166 61 -266l308 557q-55 39 -119 39q-119 0 -184.5 -90t-65.5 -240zM446 160q47 -29 105 -29q121 0 187.5 90t66.5 239.5t-55 250.5z" />
<glyph unicode="&#xf9;" horiz-adv-x="1083" d="M104 963q55 18 113 18q76 0 108.5 -24.5t32.5 -82.5q0 -106 -6 -290.5t-6 -237.5q0 -104 44 -159.5t114 -55.5q119 0 227 105q-2 84 -2 260q0 307 -14 477q57 8 102 8q131 0 131 -80q0 -37 -4 -205t-4 -278q0 -256 39 -402q-43 -23 -102 -22q-39 0 -61.5 5t-43 28.5 t-27.5 68.5q-135 -117 -311 -116q-301 0 -301 290q0 14 3 156.5t3 206.5q0 211 -35 330zM215 1354q0 72 107 125q82 -88 172 -156t130 -98.5t40 -63.5q0 -47 -66 -90q-63 47 -168.5 103.5t-160 96.5t-54.5 83z" />
<glyph unicode="&#xfa;" horiz-adv-x="1083" d="M104 963q55 18 113 18q76 0 108.5 -24.5t32.5 -82.5q0 -106 -6 -290.5t-6 -237.5q0 -104 44 -159.5t114 -55.5q119 0 227 105q-2 84 -2 260q0 307 -14 477q57 8 102 8q131 0 131 -80q0 -37 -4 -205t-4 -278q0 -256 39 -402q-43 -23 -102 -22q-39 0 -61.5 5t-43 28.5 t-27.5 68.5q-135 -117 -311 -116q-301 0 -301 290q0 14 3 156.5t3 206.5q0 211 -35 330zM422 1171q0 27 20.5 46.5t55 40t106.5 83t152 150.5q111 -57 110 -121q0 -49 -55 -88q-37 -29 -154.5 -94.5t-173.5 -116.5q-61 55 -61 100z" />
<glyph unicode="&#xfb;" horiz-adv-x="1083" d="M104 963q55 18 113 18q76 0 108.5 -24.5t32.5 -82.5q0 -106 -6 -290.5t-6 -237.5q0 -104 44 -159.5t114 -55.5q119 0 227 105q-2 84 -2 260q0 307 -14 477q57 8 102 8q131 0 131 -80q0 -37 -4 -205t-4 -278q0 -256 39 -402q-43 -23 -102 -22q-39 0 -61.5 5t-43 28.5 t-27.5 68.5q-135 -117 -311 -116q-301 0 -301 290q0 14 3 156.5t3 206.5q0 211 -35 330zM223 1141q152 178 320 297q281 -195 280 -283q0 -43 -75 -92q-78 96 -207 178q-178 -154 -234 -154q-45 1 -84 54z" />
<glyph unicode="&#xfc;" horiz-adv-x="1083" d="M104 963q55 18 113 18q76 0 108.5 -24.5t32.5 -82.5q0 -106 -6 -290.5t-6 -237.5q0 -104 44 -159.5t114 -55.5q119 0 227 105q-2 84 -2 260q0 307 -14 477q57 8 102 8q131 0 131 -80q0 -37 -4 -205t-4 -278q0 -256 39 -402q-43 -23 -102 -22q-39 0 -61.5 5t-43 28.5 t-27.5 68.5q-135 -117 -311 -116q-301 0 -301 290q0 14 3 156.5t3 206.5q0 211 -35 330zM209 1210q0 61 45 103.5t106 42.5q59 0 102.5 -42t43.5 -103.5t-45 -103.5t-105 -42q-61 0 -104 41t-43 104zM598 1210q0 61 45 103.5t107 42.5q59 0 102 -42t43 -103.5t-45 -103.5 t-105 -42q-61 0 -104 41t-43 104z" />
<glyph unicode="&#xfd;" horiz-adv-x="954" d="M0 913q100 70 162 70q78 0 110 -70q45 -94 125 -291.5t133 -371.5q70 172 115 362.5t45 307.5q0 37 -4 61q47 12 105 12q111 0 110 -86q0 -94 -73.5 -325.5t-174.5 -448.5q-184 -399 -338 -590q-45 -55 -104 -55q-41 0 -79 30.5t-62 78.5q57 39 149 145t176 246 q-76 252 -195.5 548.5t-199.5 376.5zM375 1171q0 27 20.5 46.5t55 40t106.5 83t152 150.5q111 -57 110 -121q0 -49 -55 -88q-37 -29 -154.5 -94.5t-173.5 -116.5q-61 55 -61 100z" />
<glyph unicode="&#xfe;" horiz-adv-x="1064" d="M104 1511q57 10 107 11q145 0 145 -113q0 -14 -5 -79.5t-10 -186.5t-7 -264q147 115 297 114q158 0 257 -110.5t99 -339.5q0 -236 -114.5 -399.5t-329.5 -163.5q-109 0 -211 57q0 -414 41 -533q-61 -20 -117 -20q-82 0 -110.5 27.5t-28.5 93.5q0 340 2 510q4 385 4 469 v387q-1 376 -19 540zM334 756q0 -414 2 -570q80 -55 201 -55q78 0 131 59.5t74.5 142.5t21.5 181q0 170 -58.5 250t-150.5 80q-110 0 -221 -88z" />
<glyph unicode="&#xff;" horiz-adv-x="954" d="M0 913q100 70 162 70q78 0 110 -70q45 -94 125 -291.5t133 -371.5q70 172 115 362.5t45 307.5q0 37 -4 61q47 12 105 12q111 0 110 -86q0 -94 -73.5 -325.5t-174.5 -448.5q-184 -399 -338 -590q-45 -55 -104 -55q-41 0 -79 30.5t-62 78.5q57 39 149 145t176 246 q-76 252 -195.5 548.5t-199.5 376.5zM147 1210q0 61 45.5 103.5t106.5 42.5q59 0 102 -42t43 -103.5t-45 -103.5t-104 -42q-61 0 -104.5 41t-43.5 104zM537 1210q0 61 45 103.5t106 42.5q59 0 102.5 -42t43.5 -103.5t-45.5 -103.5t-104.5 -42q-61 0 -104 41t-43 104z" />
<glyph unicode="&#x152;" horiz-adv-x="1820" d="M86 678q0 322 175 511t470 189q98 0 197 -32q229 18 469 18q311 0 350 -31q18 -18 18 -65q0 -61 -16 -111q-115 43 -369 43q-102 0 -217 -6q8 -80 8 -383h154q164 0 234 8q8 -18 8 -65q0 -57 -20.5 -79t-65.5 -24q-51 -2 -138 -2h-172q0 -408 15 -489q86 -4 141 -4 q328 0 424 45q16 -47 16 -109q0 -47 -18 -65q-39 -31 -350 -31q-279 0 -340 4q-68 2 -88 33q-125 -53 -240 -53q-295 0 -470 190.5t-175 507.5zM319 737q0 -154 38 -282.5t135.5 -221t240.5 -92.5q125 0 219 60q0 41 2 137t2 145v398q0 156 -8 270q-88 66 -213 66 q-190 0 -303 -134.5t-113 -345.5z" />
<glyph unicode="&#x153;" horiz-adv-x="1718" d="M78 487.5q0 231.5 130 368.5t343 137q246 0 369 -184q133 184 368 184q158 0 255 -86t97 -205q0 -96 -35.5 -158.5t-105 -91t-141.5 -39t-176 -10.5q-55 0 -150 5q20 -145 93 -213t180 -68q55 0 114.5 28.5t87.5 82.5q100 -53 101 -115q0 -70 -96.5 -106.5t-215.5 -36.5 q-244 0 -378 182q-125 -182 -367 -182q-213 0 -343 138t-130 369.5zM301 514q0 -166 66.5 -274.5t183.5 -108.5t184.5 89t67.5 253q0 166 -69.5 268.5t-182.5 102.5q-119 0 -184.5 -90t-65.5 -240zM1026 537q131 0 193 6q199 25 198 155q0 59 -42 102.5t-105 43.5 q-96 0 -164 -73.5t-80 -233.5z" />
<glyph unicode="&#x178;" horiz-adv-x="1038" d="M-18 1257q33 43 84 76t98 33q72 0 121 -70q152 -223 282 -505q94 145 176 329.5t93 255.5q195 -8 194 -114q0 -72 -132 -273t-263 -360v-213q0 -272 39 -402q-57 -20 -127 -20q-76 0 -103.5 26.5t-27.5 90.5q0 33 2 161.5t2 200.5v148q-288 536 -438 636zM203 1604 q0 61 45 103t106 42q59 0 102.5 -42t43.5 -103.5t-45 -103.5t-105 -42q-61 0 -104 41.5t-43 104.5zM592 1604q0 61 45 103t106 42q59 0 102.5 -42t43.5 -103.5t-45 -103.5t-105 -42q-61 0 -104 41.5t-43 104.5z" />
<glyph unicode="&#x2c6;" horiz-adv-x="608" d="M-4 1141q152 178 319 297q281 -195 281 -283q0 -43 -76 -92q-78 96 -207 178q-178 -154 -233 -154q-43 1 -84 54z" />
<glyph unicode="&#x2dc;" horiz-adv-x="622" d="M0 1188q0 59 68.5 112.5t152.5 53.5q49 0 126 -45t99 -45q39 0 105 92q72 -20 72 -66q0 -61 -69 -118.5t-151 -57.5q-59 0 -137 45t-92 45q-29 0 -104 -94q-70 31 -70 78z" />
<glyph unicode="&#x2000;" horiz-adv-x="942" />
<glyph unicode="&#x2001;" horiz-adv-x="1886" />
<glyph unicode="&#x2002;" horiz-adv-x="942" />
<glyph unicode="&#x2003;" horiz-adv-x="1886" />
<glyph unicode="&#x2004;" horiz-adv-x="628" />
<glyph unicode="&#x2005;" horiz-adv-x="471" />
<glyph unicode="&#x2006;" horiz-adv-x="313" />
<glyph unicode="&#x2007;" horiz-adv-x="313" />
<glyph unicode="&#x2008;" horiz-adv-x="235" />
<glyph unicode="&#x2009;" horiz-adv-x="376" />
<glyph unicode="&#x200a;" horiz-adv-x="104" />
<glyph unicode="&#x2010;" horiz-adv-x="532" d="M51 526q0 39 25.5 67t81.5 28q14 0 71.5 -4.5t98.5 -4.5q98 0 180 21q14 -43 14 -82q0 -43 -28.5 -68.5t-77.5 -25.5q-23 0 -74 5t-86 5q-90 0 -195 -23q-10 49 -10 82z" />
<glyph unicode="&#x2011;" horiz-adv-x="532" d="M51 526q0 39 25.5 67t81.5 28q14 0 71.5 -4.5t98.5 -4.5q98 0 180 21q14 -43 14 -82q0 -43 -28.5 -68.5t-77.5 -25.5q-23 0 -74 5t-86 5q-90 0 -195 -23q-10 49 -10 82z" />
<glyph unicode="&#x2012;" horiz-adv-x="532" d="M51 526q0 39 25.5 67t81.5 28q14 0 71.5 -4.5t98.5 -4.5q98 0 180 21q14 -43 14 -82q0 -43 -28.5 -68.5t-77.5 -25.5q-23 0 -74 5t-86 5q-90 0 -195 -23q-10 49 -10 82z" />
<glyph unicode="&#x2013;" horiz-adv-x="1218" d="M61 526q0 39 26 67t81 28q18 0 102 -4.5t136 -4.5h503q129 0 234 21q14 -43 14 -82q0 -43 -28.5 -68.5t-77.5 -25.5q-31 0 -116 5t-130 5h-481q-115 0 -252 -23q-11 49 -11 82z" />
<glyph unicode="&#x2014;" horiz-adv-x="1755" d="M61 526q0 39 26 67t81 28q18 0 102 -4.5t136 -4.5h1040q129 0 233 21q14 -43 15 -82q0 -43 -29 -68.5t-78 -25.5q-31 0 -116 5t-130 5h-1017q-115 0 -252 -23q-11 49 -11 82z" />
<glyph unicode="&#x2018;" horiz-adv-x="421" d="M35 1151q0 135 85 247.5t202 112.5q63 0 63 -77q0 -20 -2 -31h-10q-66 0 -109 -45t-43 -103q0 -92 101 -110q20 -39 20 -78q0 -49 -43 -83t-104 -34q-66 0 -113 49.5t-47 151.5z" />
<glyph unicode="&#x2019;" horiz-adv-x="559" d="M86 1032q0 20 2 31h10q66 0 109 45t43 102q0 92 -100 111q-20 39 -21 78q0 49 43 83t104 34q66 0 113 -49.5t47 -151.5q0 -135 -85 -248t-201 -113q-64 0 -64 78z" />
<glyph unicode="&#x201a;" horiz-adv-x="481" d="M45 -238q0 20 2 31h10q66 0 109 45t43 103q0 92 -100 110q-20 39 -21 78q0 49 43 83t105 34q66 0 112.5 -49.5t46.5 -151.5q0 -135 -85 -247.5t-201 -112.5q-64 -1 -64 77z" />
<glyph unicode="&#x201c;" horiz-adv-x="925" d="M51 1151q0 135 85 247.5t202 112.5q63 0 63 -77q0 -20 -2 -31h-10q-66 0 -108.5 -45t-42.5 -103q0 -92 100 -110q20 -39 20 -78q0 -49 -43 -83t-104 -34q-66 0 -113 49.5t-47 151.5zM506 1151q0 135 85 247.5t202 112.5q63 0 63 -77q0 -20 -2 -31h-10q-66 0 -109 -45 t-43 -103q0 -92 101 -110q20 -39 20 -78q0 -49 -43 -83t-104 -34q-66 0 -113 49.5t-47 151.5z" />
<glyph unicode="&#x201d;" horiz-adv-x="1013" d="M86 1032q0 20 2 31h10q66 0 109 45t43 102q0 92 -100 111q-20 39 -21 78q0 49 43 83t104 34q66 0 113 -49.5t47 -151.5q0 -135 -85 -248t-201 -113q-64 0 -64 78zM541 1032q0 20 2 31h10q66 0 109 45t43 102q0 92 -101 111q-20 39 -20 78q0 49 43 83t104 34 q66 0 113 -49.5t47 -151.5q0 -135 -85 -248t-202 -113q-63 0 -63 78z" />
<glyph unicode="&#x201e;" horiz-adv-x="931" d="M45 -238q0 20 2 31h10q66 0 109 45t43 103q0 92 -100 110q-20 39 -21 78q0 49 43 83t105 34q66 0 112.5 -49.5t46.5 -151.5q0 -135 -85 -247.5t-201 -112.5q-64 -1 -64 77zM496 -238q0 20 2 31h10q66 0 108.5 45t42.5 103q0 92 -100 110q-20 39 -20 78q0 49 43 83t104 34 q66 0 113 -49.5t47 -151.5q0 -135 -85 -247.5t-202 -112.5q-63 -1 -63 77z" />
<glyph unicode="&#x2022;" horiz-adv-x="589" d="M43 553q0 102 75 174t179 72q102 0 176 -72t74 -174q0 -106 -73 -174t-177 -68q-106 0 -180 68t-74 174z" />
<glyph unicode="&#x2026;" horiz-adv-x="1683" d="M74 135q0 66 44 112t105.5 46t104.5 -46t43 -112q0 -68 -43 -111.5t-105 -43.5q-63 0 -106 43.5t-43 111.5zM696 135q0 66 44 112t105.5 46t104.5 -46t43 -112q0 -68 -43 -111.5t-104 -43.5q-63 0 -106.5 43.5t-43.5 111.5zM1317 135q0 66 44 112t105.5 46t104.5 -46 t43 -112q0 -68 -43 -111.5t-105 -43.5q-63 0 -106 43.5t-43 111.5z" />
<glyph unicode="&#x202f;" horiz-adv-x="376" />
<glyph unicode="&#x2039;" horiz-adv-x="616" d="M70 487q209 283 364 412q78 -49 78 -84q0 -29 -70.5 -135.5t-142.5 -192.5q72 -84 142.5 -189t70.5 -136q0 -35 -78 -84q-147 122 -364 409z" />
<glyph unicode="&#x203a;" horiz-adv-x="616" d="M70 160q0 29 70.5 135t142.5 192q-72 84 -142.5 189.5t-70.5 136.5q0 35 77 84q147 -123 365 -410q-209 -283 -365 -411q-77 49 -77 84z" />
<glyph unicode="&#x205f;" horiz-adv-x="471" />
<glyph unicode="&#x20ac;" d="M35 547q0 70 88 69h43q-2 33 -2 70q0 27 2 41q-61 -4 -119 -14q-12 20 -12 53q0 72 88 72h53q41 276 214 409t398 133q299 0 299 -110q0 -68 -79 -117q-109 82 -232 82t-235.5 -102.5t-149.5 -294.5h215q219 0 352 12l11 -49q0 -74 -88 -74h-504v-47q0 -39 2 -64h227 q219 0 352 13l11 -47q0 -76 -88 -76h-486q45 -176 158 -276.5t223 -100.5q123 0 232 82q80 -49 79 -117q0 -113 -299 -112q-141 0 -261.5 48t-219 170t-127.5 306q-25 -2 -73 -6t-60 -6q-12 20 -12 53z" />
<glyph unicode="&#x2122;" horiz-adv-x="1820" d="M174 1266q0 39 23.5 53t72.5 18h250q164 0 258 11q8 -31 8 -64q0 -74 -92 -74h-123v-368q0 -152 29 -240q-74 -20 -108 -20q-61 0 -82 22.5t-21 71.5v534q-129 0 -201 -8q-14 35 -14 64zM868 1325q76 20 115 21q82 0 121 -70q100 -176 178 -430q74 236 180 430 q39 70 125 70q45 0 113 -29q-20 -84 -21 -197v-299q0 -129 27 -219q-61 -20 -107 -20q-61 0 -82.5 22.5t-21.5 71.5q0 125 1 195.5t1 132.5q-90 -268 -127 -404q-39 -16 -76 -16q-78 0 -100 49q-27 55 -78 213t-55 166v-191q0 -129 26 -219q-61 -20 -96 -20 q-61 0 -82.5 22.5t-21.5 71.5q0 47 1 187.5t1 264.5q-1 101 -21 197z" />
<glyph unicode="&#xe000;" horiz-adv-x="995" d="M0 995h995v-995h-995v995z" />
<glyph unicode="&#xfb01;" horiz-adv-x="1163" d="M8 883q0 43 22.5 59t63.5 25q37 4 78 4v16q0 137 39 235.5t105.5 148.5t141 72.5t163.5 22.5q373 0 372 -172q0 -109 -188 -108q-25 55 -85.5 92t-135.5 37q-92 0 -145.5 -59.5t-53.5 -217.5v-67h399q49 8 107 8q147 0 147 -109q0 -12 -5 -82.5t-11 -175t-6 -198.5 q0 -274 53 -400q-51 -23 -117 -22q-90 0 -121.5 37t-31.5 125q0 33 2 158.5t2 193.5q0 170 -6 313l-412 2v-403q0 -270 39 -402q-45 -20 -105 -20q-86 0 -117.5 25.5t-31.5 84.5q0 49 1 295t1 418q-27 0 -156 -12q-8 33 -8 76z" />
<glyph unicode="&#xfb02;" horiz-adv-x="1224" d="M8 883q0 43 22.5 59t63.5 25q37 4 80 4q4 256 88 375.5t297 119.5q82 0 137.5 -27.5t55.5 -76.5q0 -55 -76 -117q-74 68 -154 68q-57 0 -94 -45q-43 -59 -43 -228v-69q172 0 262 10q10 -23 10 -66q0 -51 -24.5 -70.5t-77.5 -21.5q-59 -2 -170 -2v-405q0 -270 39 -402 q-45 -20 -105 -20q-86 0 -117.5 25.5t-31.5 84.5q0 111 2 341.5t2 373.5q-29 0 -158 -12q-8 33 -8 76zM836 1511q57 10 106 11q145 0 145 -113q0 -12 -5 -95t-11 -238.5t-6 -346.5q0 -393 8 -505.5t47 -205.5q-59 -27 -121 -26q-88 0 -118.5 38t-30.5 128q4 385 4 565 q0 620 -18 788z" />
<glyph unicode="&#xfb03;" horiz-adv-x="1798" d="M8 883q0 43 22.5 59t63.5 25q37 4 80 4q4 256 88 375.5t297 119.5q82 0 137.5 -27.5t55.5 -76.5q0 -55 -76 -117q-74 68 -154 68q-57 0 -94 -45q-43 -59 -43 -228v-69h420q2 272 129 383.5t319 111.5q373 0 373 -172q0 -109 -188 -108q-25 55 -85.5 92t-135.5 37 q-92 0 -145.5 -59.5t-53.5 -217.5v-67h399q49 8 107 8q147 0 147 -109q0 -12 -6 -82.5t-11 -175t-5 -198.5q0 -274 53 -400q-51 -23 -117 -22q-90 0 -121.5 37t-31.5 125q0 33 2 158.5t2 193.5q0 170 -6 313l-412 2v-403q0 -270 39 -402q-45 -20 -105 -20q-86 0 -117.5 25.5 t-31.5 84.5q0 49 1 295t1 418l-420 2v-405q0 -270 39 -402q-45 -20 -105 -20q-86 0 -117.5 25.5t-31.5 84.5q0 111 2 341.5t2 373.5q-29 0 -158 -12q-8 33 -8 76z" />
<glyph unicode="&#xfb04;" horiz-adv-x="1855" d="M8 883q0 43 22.5 59t63.5 25q37 4 80 4q4 256 88 375.5t297 119.5q82 0 137.5 -27.5t55.5 -76.5q0 -55 -76 -117q-74 68 -154 68q-57 0 -94 -45q-43 -59 -43 -228v-69h420q4 256 88 375.5t297 119.5q82 0 137 -27.5t55 -76.5q0 -55 -75 -117q-74 68 -154 68 q-57 0 -94 -45q-43 -59 -43 -228v-69q172 0 262 10q10 -23 10 -66q0 -51 -24.5 -70.5t-77.5 -21.5q-59 -2 -170 -2v-405q0 -270 39 -402q-45 -20 -105 -20q-86 0 -117.5 25.5t-31.5 84.5q0 111 2 341.5t2 373.5l-420 2v-405q0 -270 39 -402q-45 -20 -105 -20 q-86 0 -117.5 25.5t-31.5 84.5q0 111 2 341.5t2 373.5q-29 0 -158 -12q-8 33 -8 76zM1466 1511q57 10 107 11q145 0 145 -113q0 -12 -5 -95t-11 -238.5t-6 -346.5q0 -393 8 -505.5t47 -205.5q-59 -27 -121 -26q-88 0 -118.5 38t-30.5 128q4 385 4 565q-1 620 -19 788z" />
</font>
</defs>
</svg>
