<?xml version="1.0" standalone="no"?>
<!DOCTYPE svg PUBLIC "-//W3C//DTD SVG 1.1//EN" "http://www.w3.org/Graphics/SVG/1.1/DTD/svg11.dtd" >
<svg xmlns="http://www.w3.org/2000/svg">
<metadata>
This is a custom SVG webfont generated by Font Squirrel.
Copyright   : Copyright c 2011 Dario Manuel Muhafara httpwwwtiponetar with Reserved Font Name Overlock
Designer    : Dario Muhafara
Foundry     : Dario Manuel Muhafara
Foundry URL : wwwtiponetar
</metadata>
<defs>
<font id="Overlock" horiz-adv-x="1095" >
<font-face units-per-em="2048" ascent="1638" descent="-410" />
<missing-glyph horiz-adv-x="471" />
<glyph unicode=" "  horiz-adv-x="471" />
<glyph unicode="&#x09;" horiz-adv-x="471" />
<glyph unicode="&#xa0;" horiz-adv-x="471" />
<glyph unicode="!" horiz-adv-x="636" d="M205 108.5q0 55.5 37 93.5t88 38t87 -38t36 -93.5t-36 -92t-87 -36.5t-88 36.5t-37 92zM207 1389q72 14 106 14q96 0 97 -100q0 -57 -18.5 -230.5t-18.5 -320.5v-90q0 -164 33 -254q-41 -20 -76 -21q-82 0 -84 98q-2 27 -2 233t-8.5 395.5t-28.5 275.5z" />
<glyph unicode="&#x22;" horiz-adv-x="706" d="M102 1430q0 37 28 58t69 21q37 0 61.5 -22.5t24.5 -71.5q0 -86 -39 -342q-8 -49 -24.5 -68.5t-47.5 -19.5q-25 0 -49 8q6 37 6 82q0 125 -14.5 230t-14.5 125zM442 1430q0 37 28 58t69 21q37 0 61.5 -22.5t24.5 -71.5q0 -86 -39 -342q-8 -49 -24.5 -68.5t-47.5 -19.5 q-25 0 -49 8q6 37 6 82q0 125 -14.5 230t-14.5 125z" />
<glyph unicode="#" d="M29 479q0 82 129 82q106 0 170 -2l30 238q-170 -8 -274 -37q-6 20 -6 67q0 82 129 82l166 -2q4 31 13 108t15.5 138t8.5 96q29 6 55 6q63 0 63 -65q0 -14 -51 -285h234q2 18 18 156.5t19 187.5q29 6 55 6q63 0 63 -65q0 -4 -49 -281q242 10 279 13q-2 -45 -5.5 -69 t-27 -47.5t-66.5 -23.5q-10 0 -39.5 2t-78 4.5t-84.5 4.5q-18 -111 -35 -234q186 8 287 14q-2 -35 -4.5 -52t-10.5 -40.5t-29.5 -34t-54.5 -10.5q-10 0 -40.5 2t-79 4t-85.5 4q-20 -178 -20 -229q0 -43 8 -117q-29 -16 -65 -16q-61 0 -62 68q0 31 43 299q-53 2 -174 2h-65 q-23 -203 -23 -236q0 -43 8 -117q-29 -16 -65 -16q-61 0 -62 68q0 31 43 299q-170 -8 -274 -37q-6 20 -6 65zM422 557q190 0 244 2q12 74 30 238q-53 2 -174 2h-63q-27 -150 -37 -242z" />
<glyph unicode="$" d="M125 168q0 41 23.5 62.5t72.5 45.5q31 -66 104.5 -111.5t159.5 -60.5v512q-78 25 -125 46.5t-102 64.5t-81.5 112.5t-26.5 168.5q0 154 93 246t240 112q-4 96 -8 141q20 6 35 6q55 0 55 -55v-84q129 0 237.5 -50t108.5 -136q0 -78 -108 -98q-29 61 -94.5 104t-143.5 53 v-487q213 -59 295 -145.5t82 -223.5q0 -172 -101.5 -286.5t-273.5 -122.5q4 -90 8 -138l-30 -4q-59 0 -60 56v84q-143 4 -251.5 59t-108.5 129zM297 1022q0 -92 48 -144.5t140 -89.5v461q-84 -10 -136 -66.5t-52 -160.5zM565 100q100 6 165 69.5t65 186.5q0 102 -58.5 152.5 t-171.5 85.5v-494z" />
<glyph unicode="%" horiz-adv-x="1540" d="M102 1022q0 158 79 249t214 91q133 0 212 -92t79 -248t-79 -248t-212 -92q-135 0 -214 92t-79 248zM233 1047q0 -102 42 -182.5t118 -80.5q72 0 115 63.5t43 160.5q0 98 -41 176t-115 78q-70 0 -116 -61.5t-46 -153.5zM293 2q0 25 16 49l606 957q156 248 246 409 q35 -2 63.5 -20.5t28.5 -44.5q0 -20 -14 -43l-606 -959q-145 -229 -246 -409q-88 18 -94 61zM854 319q0 158 79 249t214 91q133 0 212 -92t79 -247.5t-79 -247.5t-212 -92q-135 0 -214 91.5t-79 247.5zM985 344q0 -102 42 -182t118 -80q72 0 115 63.5t43 159.5q0 98 -41 176 t-115 78q-70 0 -116 -61.5t-46 -153.5z" />
<glyph unicode="&#x26;" horiz-adv-x="1261" d="M102 350q0 119 58.5 202t163.5 157q-45 68 -91 157q-55 111 -55 195q0 145 99.5 231t252.5 86q139 0 219 -76.5t80 -183.5q0 -66 -26.5 -128t-58 -102t-89 -86t-82 -61.5t-75.5 -46.5q176 -256 368 -420q37 80 37 177q0 94 -18 135q45 25 73 24q88 0 89 -121 q0 -168 -80 -290q127 -84 229 -84q4 -20 4 -41q0 -39 -24.5 -66.5t-75.5 -27.5q-100 0 -238 104q-137 -104 -319 -104q-178 0 -309.5 98t-131.5 272zM256 375q0 -129 86 -205t223 -76q119 0 209 66q-211 201 -387 452q-131 -110 -131 -237zM319 1079q0 -90 121 -295 q80 53 124 88t83 95.5t39 130.5q0 72 -43 123t-131 51q-193 0 -193 -193z" />
<glyph unicode="'" horiz-adv-x="489" d="M123 1430q0 37 27.5 58t68.5 21q37 0 61.5 -22.5t24.5 -71.5q0 -86 -39 -342q-8 -49 -24.5 -68.5t-46.5 -19.5q-25 0 -50 8q6 37 7 82q0 125 -14.5 230t-14.5 125z" />
<glyph unicode="(" horiz-adv-x="702" d="M184 545q0 170 42 350t99.5 308t119 211t102.5 83q35 0 67 -47q-127 -143 -204.5 -398t-77.5 -507q0 -276 80 -524t202 -390q-33 -47 -67 -47q-39 0 -99.5 81t-120 208t-101.5 310.5t-42 361.5z" />
<glyph unicode=")" horiz-adv-x="655" d="M41 -369q123 141 203 389t80 525q0 252 -78 507t-205 398q33 47 68 47q41 0 102 -83t118.5 -211t99.5 -308t42 -350q0 -178 -42 -361.5t-101.5 -310.5t-120 -208t-98.5 -81q-35 0 -68 47z" />
<glyph unicode="*" horiz-adv-x="831" d="M72 1233q8 47 32.5 85t63.5 38q18 0 40.5 -11.5t77 -48t76.5 -51.5q-4 55 -30 266q35 10 65 11q96 0 97 -80q0 -20 -27 -203q41 27 213 152q59 -51 59 -111q0 -20 -10 -36.5t-36.5 -31t-48 -23.5t-70 -27.5t-76.5 -28.5q45 -47 213 -195q-47 -84 -113 -84 q-27 0 -51.5 27.5t-70.5 101.5t-64 102q-27 -37 -54.5 -83t-57.5 -97t-44 -76q-39 14 -70.5 43t-31.5 64q0 25 29.5 58.5t105.5 107.5q25 23 39 37q-66 28 -256 94z" />
<glyph unicode="+" d="M100 504q0 33 18.5 59.5t55.5 26.5q16 0 124 -6t191 -9q0 262 -16 404q18 6 62 6q37 0 61.5 -20.5t24.5 -53.5q0 -35 -7.5 -160.5t-7.5 -177.5q242 0 383 17q6 -18 6 -62q0 -37 -20.5 -61.5t-52.5 -24.5q-35 0 -151 7.5t-167 7.5q0 -223 17 -404q-31 -6 -62 -6 q-35 0 -60.5 19.5t-25.5 54.5q0 16 6 132t8 206q-203 -2 -381 -17q-6 31 -6 62z" />
<glyph unicode="," horiz-adv-x="464" d="M55 -231q0 16 2 24h11q66 0 108.5 49t42.5 113q0 100 -100 121q-20 33 -21 67q0 43 35 73t84 30q53 0 91 -47t38 -146q0 -129 -70.5 -237.5t-166.5 -108.5q-54 1 -54 62z" />
<glyph unicode="-" horiz-adv-x="471" d="M51 522q0 33 17.5 56.5t56.5 23.5q2 0 62.5 -4t107.5 -4q96 0 160 14q6 -18 6 -61q0 -35 -20.5 -57.5t-53.5 -22.5q-12 0 -64.5 5t-93.5 5q-96 0 -172 -16q-6 30 -6 61z" />
<glyph unicode="." horiz-adv-x="473" d="M102 108.5q0 55.5 37 93.5t88.5 38t87 -38t35.5 -93.5t-35.5 -92t-87 -36.5t-88.5 36.5t-37 92z" />
<glyph unicode="/" horiz-adv-x="528" d="M86 -193q0 14 193 1231q45 299 61 475l43 7q74 0 74 -56l-193 -1233q-45 -299 -61 -475q-27 -6 -49 -6q-68 0 -68 57z" />
<glyph unicode="0" d="M61 678q0 322 131.5 511t354.5 189t355 -189.5t132 -510.5q0 -317 -132 -507.5t-355 -190.5t-354.5 189.5t-131.5 508.5zM215 741q0 -160 35 -301t111.5 -240.5t183.5 -99.5q150 0 241 156t91 387q0 147 -35 283.5t-112 233.5t-183 97q-143 0 -237.5 -149.5t-94.5 -366.5 z" />
<glyph unicode="1" d="M238 1257q0 78 79 89q219 33 261 32q33 0 58.5 -18.5t25.5 -59.5q0 -16 -4.5 -118.5t-8.5 -255t-4 -289.5v-127q0 -268 14 -399q141 0 213 8q8 -25 9 -45q0 -78 -80 -78q-14 0 -126 2t-202 2q-156 0 -219 -2q-10 31 -10 49q0 70 118 70h140q0 39 2 244.5t2 363.5 q0 289 -6 516q-221 -23 -256 -29q-6 25 -6 45z" />
<glyph unicode="2" d="M84 96q0 18 2 27q418 387 546 540.5t128 301.5q0 133 -74 211.5t-180 78.5q-86 0 -172 -48t-139 -126q-78 10 -78 68q0 80 128 154.5t277 74.5q160 0 275.5 -98t115.5 -276q0 -106 -32.5 -196.5t-119.5 -197t-197.5 -210t-311.5 -271.5q70 -4 180 -4q217 0 317.5 10 t200.5 47q29 -51 29 -88q0 -51 -51 -69q-78 -29 -332 -29q-297 0 -418 4q-94 0 -94 96z" />
<glyph unicode="3" d="M133 106q0 66 76 76q70 -82 242 -82q150 0 233.5 85t83.5 196q0 119 -98.5 203t-272.5 84q-31 0 -45 3t-24.5 19.5t-10.5 48.5q0 16 2 29q203 0 304.5 81t101.5 191q0 88 -59.5 152.5t-153.5 64.5q-76 0 -147.5 -40.5t-116.5 -118.5q-39 0 -63.5 20.5t-24.5 46.5 q0 72 112.5 142.5t253.5 70.5q168 0 262.5 -93t94.5 -222q0 -96 -54.5 -180t-162.5 -138q150 -66 205 -151.5t55 -204.5q0 -166 -129 -287.5t-355 -121.5q-154 0 -231.5 38.5t-77.5 87.5z" />
<glyph unicode="4" d="M90 524q0 29 4 58q88 152 291 422t293 350q29 25 108 24q23 0 60 -4q0 -6 -5 -90t-9.5 -230.5t-4.5 -305.5v-183q152 12 201 35q16 -37 16 -80q0 -59 -40 -74q-47 -16 -175 -18q0 -303 39 -432q-37 -16 -84 -16q-59 0 -79.5 26.5t-20.5 89.5q0 84 4 330q-434 0 -551 14 q-47 6 -47 84zM236 559q109 -6 219 -6q123 0 233 6q0 276 6 627q-86 -94 -216.5 -273.5t-241.5 -353.5z" />
<glyph unicode="5" d="M125 106q0 66 76 76q70 -82 241 -82q150 0 235 99.5t85 228.5q0 137 -98.5 235.5t-268.5 98.5q-88 0 -170 -10q-20 20 -20 96q0 31 26 512q59 -4 406 -4q145 0 227 16q20 -31 21 -69q0 -90 -158 -91q-160 0 -381 13l-29 -359q76 12 146 13q225 0 341 -116t116 -304 q0 -205 -129 -342t-357 -137q-154 0 -231.5 38.5t-77.5 87.5z" />
<glyph unicode="6" d="M121 563q0 154 44 298.5t124 260t207 186t278 70.5q84 0 84 -71q0 -23 -8 -60q-57 8 -82 8q-219 0 -346 -167.5t-146 -411.5q145 125 320 125q158 0 269.5 -104.5t111.5 -276.5q0 -174 -118 -307t-312 -133q-121 0 -207 49t-132 135t-66.5 184t-20.5 215zM274 561 q2 -98 14.5 -173t42 -143.5t88 -106.5t144.5 -38q121 0 188.5 85t67.5 204q0 133 -74.5 214t-189.5 81q-146 0 -281 -123z" />
<glyph unicode="7" d="M109 1303q0 29 20 69q100 -16 229 -16q516 0 621 4q16 -33 16 -76q0 -41 -12 -78q-66 -205 -547 -1085q-41 -76 -72.5 -108.5t-66.5 -32.5q-59 0 -131 79q174 182 382 554t294 610q-313 -10 -578 -11q-155 1 -155 91z" />
<glyph unicode="8" d="M102 348q0 154 77 245t214 150q-123 68 -180 144t-57 200q0 129 111.5 210t269 81t270.5 -80.5t113 -210.5q0 -221 -248 -325q152 -72 227.5 -165t75.5 -249q0 -152 -113.5 -260t-322.5 -108t-323 108t-114 260zM256 356q0 -102 77 -179t204 -77q129 0 204.5 77t75.5 179 q0 121 -75.5 193t-235.5 141q-125 -55 -187.5 -132t-62.5 -202zM305 1094q0 -94 66.5 -160t197.5 -119q104 45 152.5 112.5t48.5 166.5q0 72 -68.5 117.5t-165 45.5t-164 -45.5t-67.5 -117.5z" />
<glyph unicode="9" d="M90 940q0 174 118 307t312 133q121 0 207 -49t132 -135t66.5 -184.5t20.5 -214.5q0 -154 -44 -298.5t-124 -260t-207 -186t-278 -70.5q-84 0 -84 71q0 23 8 60q57 -8 82 -9q219 0 346 168t146 412q-145 -125 -320 -125q-158 0 -269.5 104.5t-111.5 276.5zM248 971 q0 -133 74.5 -214t189.5 -81q145 0 281 123q-2 98 -14.5 173t-42 143.5t-88 106.5t-144.5 38q-121 0 -188.5 -85t-67.5 -204z" />
<glyph unicode=":" horiz-adv-x="473" d="M102 108.5q0 55.5 37 93.5t88.5 38t87 -38t35.5 -93.5t-35.5 -92t-87 -36.5t-88.5 36.5t-37 92zM102 848q0 55 37 93t88.5 38t87 -38t35.5 -93t-35.5 -92t-87 -37t-88.5 37t-37 92z" />
<glyph unicode=";" horiz-adv-x="503" d="M55 -231q0 16 2 24h11q66 0 108.5 49t42.5 113q0 100 -100 121q-20 33 -21 67q0 43 35 73t84 30q53 0 91 -47t38 -146q0 -129 -70.5 -237.5t-166.5 -108.5q-54 1 -54 62zM96 848q0 55 37 93t88 38t87 -38t36 -93t-36 -92t-87 -37t-88 37t-37 92z" />
<glyph unicode="&#x3c;" d="M217 514l449 430q27 23 51 23q31 0 58.5 -21.5t41.5 -48.5q-35 -31 -143.5 -124t-201.5 -173t-99 -86q76 -76 444 -408q-37 -70 -100 -69q-29 0 -51 22z" />
<glyph unicode="=" d="M141 299q0 33 18.5 59.5t55.5 26.5q6 0 129 -7t213 -7q266 0 391 14q6 -18 6 -61q0 -37 -20.5 -61.5t-53 -24.5t-146 8t-173.5 8q-233 0 -414 -16q-6 30 -6 61zM141 709q0 33 18.5 59.5t55.5 26.5q6 0 129 -7.5t213 -7.5q266 0 391 15q6 -18 6 -62q0 -37 -20.5 -61.5 t-53 -24.5t-146 8.5t-173.5 8.5q-233 0 -414 -17q-6 31 -6 62z" />
<glyph unicode="&#x3e;" d="M246 106q369 332 444 408q-6 6 -99 86t-201.5 173t-143.5 124q14 27 41.5 48.5t58.5 21.5q25 0 51 -23l449 -430l-449 -455q-23 -23 -51 -22q-63 -1 -100 69z" />
<glyph unicode="?" horiz-adv-x="782" d="M82 1223q0 82 90 130t215 48q139 0 231 -55q123 -72 123 -218q0 -92 -32.5 -165.5t-78.5 -120.5t-92 -90t-79 -97.5t-33 -117.5q0 -61 23 -129q-43 -20 -78 -21q-94 0 -95 139q0 70 33 133.5t78 114.5t91 102.5t79 117t33 139.5q0 86 -72 129q-43 25 -102 24 q-80 0 -150.5 -42t-89.5 -111q-94 14 -94 90zM248 108.5q0 55.5 37 93.5t88 38t87 -38t36 -93.5t-36 -92t-87 -36.5t-88 36.5t-37 92z" />
<glyph unicode="@" horiz-adv-x="1763" d="M182 369q0 150 57.5 297t159 269t260 197.5t345.5 75.5q264 0 419.5 -146.5t155.5 -371.5q0 -223 -134 -386t-276 -163q-133 0 -172 158q-104 -188 -254 -188q-100 0 -163.5 74.5t-63.5 215.5q0 209 108.5 357.5t266.5 148.5q180 0 309 -94q-76 -303 -76 -461 q0 -113 80 -112q82 0 157 108.5t75 286.5q0 219 -114 339t-349 120q-190 0 -344 -112t-230.5 -274.5t-76.5 -332.5q0 -205 119.5 -339t353.5 -134q113 0 206 45t125 119q88 -37 88 -99q0 -80 -123.5 -135t-289.5 -55q-303 0 -461 170t-158 422zM659 444q0 -90 31 -149 t86 -59q51 0 108.5 47t100.5 135q8 53 21.5 165.5t17.5 145.5q-70 57 -143 57q-96 0 -159 -94t-63 -248z" />
<glyph unicode="A" horiz-adv-x="1128" d="M10 39q0 25 87 229.5t212 521t197 562.5q39 6 86 6q51 0 71.5 -17.5t43.5 -91.5q129 -416 229 -676q160 -418 229 -553q-57 -41 -98 -40q-66 0 -88 55q-39 100 -141 393q-229 -4 -275 -4q-53 0 -258 4q-137 -346 -172 -471q-68 14 -95.5 32.5t-27.5 49.5zM356 549 q160 -4 250 -4q127 0 189 4q-70 182 -211 616q-18 -47 -94.5 -262t-133.5 -354z" />
<glyph unicode="B" horiz-adv-x="1120" d="M141 109q33 233 33 684q0 381 -27 561q152 25 326 24q223 0 364.5 -82t141.5 -270q0 -205 -178 -285q227 -96 227 -350q0 -195 -126 -303t-308 -108q-297 0 -453 129zM299 178q39 -31 113.5 -52.5t144.5 -21.5q133 0 223 75t90 204q0 143 -101 219t-249 76 q-133 0 -194 -10q0 -164 -27 -490zM319 1245q8 -172 9 -461q66 -4 112 -4q381 0 381 234q0 240 -362 239q-50 0 -140 -8z" />
<glyph unicode="C" horiz-adv-x="1232" d="M100 680q0 328 174.5 513t470.5 185q160 0 268.5 -64.5t108.5 -158.5q0 -84 -116 -102q-39 100 -123 150t-178 50q-193 0 -315 -152.5t-122 -379.5q0 -262 123 -439.5t344 -177.5q98 0 183.5 43t134.5 127q90 -37 90 -100q0 -74 -117 -134t-289 -60q-289 0 -463 193.5 t-174 506.5z" />
<glyph unicode="D" horiz-adv-x="1300" d="M135 109q29 186 33 688q0 358 -27 557q123 25 318 24q160 0 286.5 -34.5t232 -111.5t164 -216t58.5 -334q0 -307 -164 -504.5t-467 -197.5q-278 0 -434 129zM293 178q111 -74 272 -74q129 0 223.5 49.5t144.5 132.5t72.5 171t22.5 184q0 305 -151.5 458.5t-432.5 153.5 q-45 0 -131 -8q8 -141 9 -334q0 -454 -29 -733z" />
<glyph unicode="E" horiz-adv-x="995" d="M135 1346q219 18 447 18q295 0 331 -31q18 -16 19 -53q0 -49 -17 -90q-117 43 -380 43q-109 0 -226 -6q8 -90 8 -434h162q172 0 246 8q8 -16 8 -53q0 -47 -21.5 -63.5t-68.5 -18.5q-53 -2 -145 -2h-181q0 -446 15 -537q90 -4 145 -4q344 0 441 47q16 -41 16 -90 q0 -37 -19 -53q-37 -31 -331 -31q-262 0 -324 4q-59 2 -79.5 28.5t-20.5 88.5q0 33 2 151.5t2 190.5v409q0 294 -29 478z" />
<glyph unicode="F" horiz-adv-x="931" d="M135 1346q219 18 447 18q295 0 331 -31q18 -16 19 -53q0 -49 -17 -90q-117 43 -380 43q-109 0 -226 -6q8 -90 8 -244v-211h162q170 0 246 8q8 -16 8 -53q0 -59 -32.5 -71.5t-151.5 -12.5h-232v-227q0 -276 39 -406q-37 -16 -96 -16t-79.5 26.5t-20.5 90.5q0 33 2 161.5 t2 200.5v395q0 294 -29 478z" />
<glyph unicode="G" horiz-adv-x="1259" d="M100 680q0 328 174.5 513t470.5 185q160 0 268.5 -64.5t108.5 -158.5q0 -84 -116 -102q-39 100 -123 150t-178 50q-193 0 -315 -152.5t-122 -379.5q0 -262 123 -439.5t342 -177.5q164 0 264 99q-4 256 -14 413q35 6 74 7q100 0 100 -78l-6 -131q-8 -131 -8 -240 q0 -74 -117 -134t-289 -60q-289 0 -463 193.5t-174 506.5z" />
<glyph unicode="H" horiz-adv-x="1284" d="M135 1358q35 6 84 6q100 0 100 -78q0 -10 -4 -83t-8 -184.5t-4 -217.5q98 -4 332 -4q223 0 321 4v104q-2 295 -14 453q35 6 84 6q100 0 100 -78q0 -12 -4 -82.5t-8 -176t-4 -200.5v-411q0 -276 39 -406q-37 -16 -96.5 -16t-80 26.5t-20.5 90.5q0 33 2 161.5t2 200.5v207 q-104 -4 -321 -4q-233 0 -332 4v-264q0 -276 39 -406q-37 -16 -96.5 -16t-80 26.5t-20.5 90.5q0 33 2.5 161.5t2.5 200.5v410q-1 289 -15 475z" />
<glyph unicode="I" horiz-adv-x="452" d="M135 1358q35 6 84 6q100 0 100 -78q0 -12 -4 -82.5t-8 -176t-4 -200.5v-411q0 -276 39 -406q-37 -16 -96.5 -16t-80 26.5t-20.5 90.5q0 33 2.5 161.5t2.5 200.5v410q-1 289 -15 475z" />
<glyph unicode="J" horiz-adv-x="454" d="M-78 -127q68 14 111 37.5t67.5 49.5t35.5 81t13.5 100t2.5 138q0 43 -1 269t-1 335q0 289 -15 475q35 6 84 6q100 0 100 -78q0 -10 -4 -75.5t-8 -163t-4 -185.5v-635q0 -113 -24.5 -200.5t-60.5 -137t-80 -81t-75.5 -42t-56.5 -10.5q-76 0 -84 117z" />
<glyph unicode="K" horiz-adv-x="1054" d="M135 1358q41 6 70 6q115 0 114 -78q0 -10 -4 -88t-8 -198.5t-4 -233.5q176 141 344 312t205 282q106 -18 106 -77.5t-143 -211t-336 -313.5q227 -379 375 -559q25 -31 39 -44.5t43 -27.5t63 -14q25 0 48 6q8 -29 8 -51q0 -43 -35 -65.5t-86 -22.5q-88 0 -184 104 q-45 49 -104.5 130t-100.5 142.5t-106.5 164t-86.5 132.5q-35 -27 -49 -37v-200q0 -276 39 -406q-33 -16 -98 -16q-57 0 -78 27.5t-21 89.5q0 33 2.5 161.5t2.5 200.5v410q-1 289 -15 475z" />
<glyph unicode="L" horiz-adv-x="878" d="M135 1358q35 6 84 6q100 0 100 -78q0 -12 -4 -82.5t-8 -176t-4 -200.5v-184q0 -426 14 -516q86 -4 136 -4q319 0 411 47q14 -43 15 -90q0 -37 -19 -53q-35 -31 -313 -31q-246 0 -307 4q-55 2 -75 28.5t-20 88.5q0 33 2.5 151.5t2.5 190.5v424q-1 289 -15 475z" />
<glyph unicode="M" horiz-adv-x="1632" d="M135 1350q66 16 119 16q86 0 145 -98q80 -139 162 -340t128 -339t130 -401q63 254 171 549t241 531q55 98 149 98q70 0 115 -16q-37 -123 -37 -457v-477q0 -276 39 -406q-37 -16 -96.5 -16t-80 26.5t-20.5 90.5q0 14 1.5 143t2.5 367.5t1 521.5q-188 -379 -412 -1139 q-25 -8 -55 -8q-80 0 -103 53q-49 111 -185 493t-243 597v-723q0 -276 39 -406q-37 -16 -76 -16q-59 0 -79.5 26.5t-20.5 90.5q0 33 2 161.5t2 200.5v516q0 230 -39 361z" />
<glyph unicode="N" horiz-adv-x="1288" d="M135 1350q39 16 96 16q41 0 64.5 -14.5t50.5 -44.5q102 -117 295 -436.5t352 -626.5q-12 164 -12 639q0 289 -14 475q35 6 63 6q100 0 100 -78q0 -12 -4 -82.5t-8 -176t-4 -200.5v-350q0 -289 14 -475q-33 -8 -67 -8q-70 0 -107 55q-84 129 -290.5 494.5t-354.5 586.5 q-2 -78 -2 -714q0 -276 39 -406q-37 -16 -76 -16q-59 0 -79.5 26.5t-20.5 90.5q0 33 2 161.5t2 200.5v410q0 342 -39 467z" />
<glyph unicode="O" horiz-adv-x="1458" d="M100 678q0 322 170 511t457 189q289 0 460 -189.5t171 -510.5q0 -317 -171 -507.5t-460 -190.5q-287 0 -457 190.5t-170 507.5zM268 741q0 -121 25.5 -229.5t77 -202.5t142.5 -149.5t212 -55.5q221 0 341 148.5t120 388.5q0 115 -25.5 219.5t-77 194.5t-143.5 144 t-211 54q-211 0 -336 -144.5t-125 -367.5z" />
<glyph unicode="P" horiz-adv-x="1032" d="M135 1354q152 25 305 24q549 0 549 -442q0 -213 -128 -325.5t-300 -112.5q-145 0 -246 65v-147q0 -276 39 -406q-37 -16 -96 -16t-79.5 26.5t-20.5 90.5q0 33 2 161.5t2 200.5v410q0 283 -27 471zM307 1245q8 -119 8 -418v-153q90 -51 205 -51q139 0 218 80.5t79 218.5 q0 188 -88 259.5t-274 71.5q-54 0 -148 -8z" />
<glyph unicode="Q" horiz-adv-x="1458" d="M100 678q0 322 170 511t457 189q289 0 460 -189.5t171 -510.5q0 -299 -152.5 -485.5t-412.5 -208.5q25 -90 87 -135.5t146 -45.5q82 0 125 16.5t100 61.5q20 -12 40 -43t20 -51q0 -51 -83 -80t-188 -29q-150 0 -249 82t-125 222q-260 20 -413 207.5t-153 488.5zM268 741 q0 -121 25.5 -229.5t77 -202.5t142.5 -149.5t212 -55.5q221 0 341 148.5t120 388.5q0 115 -25.5 219.5t-77 194.5t-143.5 144t-211 54q-211 0 -336 -144.5t-125 -367.5z" />
<glyph unicode="R" horiz-adv-x="1085" d="M135 1354q152 25 305 24q549 0 549 -407q0 -168 -92 -271.5t-244 -132.5q0 -2 35 -75.5t48.5 -98t42 -80t50 -88t41.5 -53.5q53 -59 131 -59q25 0 56 6q18 -37 18 -62q0 -78 -153 -77q-39 0 -78 18t-78 63t-66.5 80t-67.5 109t-56.5 105.5t-55.5 116.5t-45 97 q-57 8 -57 45q0 18 10 56q57 -10 96 -11q137 0 215 81t78 221q0 164 -86 228t-264 64q-66 0 -160 -8q8 -119 8 -418v-411q0 -276 39 -406q-37 -16 -96 -16t-79.5 26.5t-20.5 90.5q0 33 2 161.5t2 200.5v410q0 283 -27 471z" />
<glyph unicode="S" horiz-adv-x="1060" d="M92 172q0 27 17.5 48.5t34 31.5t53.5 29q39 -76 140 -124t206 -48q115 0 196.5 62t81.5 179q0 96 -72.5 152.5t-176 85t-207 63.5t-176 118t-72.5 220q0 188 124 288.5t316 100.5q141 0 261 -49t120 -135q0 -82 -117 -102q-35 68 -125 111.5t-186 43.5q-104 0 -175 -57 t-71 -168q0 -84 52.5 -138.5t130 -76t170 -52t170 -63.5t130 -112.5t52.5 -198.5q0 -106 -41 -187t-110.5 -126t-150.5 -66.5t-171 -21.5q-160 0 -282 56t-122 136z" />
<glyph unicode="T" horiz-adv-x="952" d="M0 1280q0 41 21.5 55.5t68.5 16.5q51 2 219 2h242q324 0 395 6q6 -18 6 -53q0 -41 -21.5 -55.5t-68.5 -16.5q-63 -2 -293 -2q-14 -295 -14 -406v-411q0 -276 39 -406q-37 -16 -96.5 -16t-80 26.5t-20.5 90.5q0 33 2 161.5t2 200.5v410q0 190 -6 350q-291 0 -389 -8 q-6 18 -6 55z" />
<glyph unicode="U" horiz-adv-x="1318" d="M147 1348q41 16 93 16q59 0 86.5 -23.5t27.5 -80.5q0 -88 -15 -388.5t-15 -465.5q0 -143 82.5 -219t191.5 -76q100 0 211 49t180 114q0 14 1 70.5t1 193.5v345q0 289 -14 475q35 6 84 6q100 0 100 -78q0 -4 -4 -75.5t-8 -224t-4 -353.5q0 -317 6 -425t33 -198 q-37 -16 -97 -16q-57 0 -78.5 25.5t-21.5 95.5v22q-82 -70 -196.5 -113.5t-210.5 -43.5q-193 0 -304.5 91t-111.5 322q0 121 9 328t9 305q0 195 -35 322z" />
<glyph unicode="V" horiz-adv-x="1142" d="M-41 1288q86 76 147 76q63 0 101 -88q80 -182 188.5 -518t169.5 -584q121 135 256 494.5t135 595.5q0 74 -8 102q57 12 86 12q47 0 67.5 -22.5t20.5 -77.5q0 -225 -143 -603t-293 -569q-51 -68 -86 -90t-82 -22q-23 0 -67 4q-66 330 -223.5 755.5t-268.5 534.5z" />
<glyph unicode="W" horiz-adv-x="1929" d="M-41 1288q84 76 150 76q59 0 96 -88q76 -178 172 -510t155 -592q111 133 234 492.5t123 595.5q0 74 -8 104q57 12 86 12q45 0 66.5 -19.5t21.5 -68.5q0 -59 -11 -116q135 -213 320 -1000q111 135 234.5 493.5t123.5 594.5q0 74 -8 104q57 12 86 12q45 0 66.5 -19.5 t21.5 -68.5q0 -238 -134 -613.5t-279 -570.5q-51 -68 -83 -90t-77 -22q-25 0 -66 4q-80 430 -256 903q-66 -227 -163 -449.5t-189 -345.5q-51 -68 -83 -90t-77 -22q-23 0 -63 4q-59 328 -208 754.5t-251 535.5z" />
<glyph unicode="X" horiz-adv-x="1179" d="M51 88q0 121 455 619q-301 483 -445 575q78 96 152 96q43 0 104 -86q131 -188 297 -463q115 139 205 300t103 247q145 -29 145 -114q0 -55 -119 -224.5t-260 -328.5q319 -545 479 -641q-78 -88 -141 -88q-49 0 -106 79q-121 160 -340 525q-117 -113 -238 -301.5 t-149 -302.5q-142 26 -142 108z" />
<glyph unicode="Y" horiz-adv-x="1026" d="M-20 1268q6 8 25.5 30.5t26.5 28.5l21 19q14 12 26.5 16t29.5 4q51 0 98 -70q123 -178 328 -557q98 129 209.5 345t115.5 292q156 -10 156 -92q0 -51 -155.5 -289.5t-272.5 -378.5v-174q0 -299 39 -432q-37 -16 -96.5 -16t-80 26.5t-20.5 90.5q2 188 4 364v127 q-296 560 -454 666z" />
<glyph unicode="Z" d="M53 115q0 66 51 129l773 985q-96 12 -250 12q-289 0 -512 -55q-20 49 -21 86q0 57 60 74q86 20 260 20q377 0 608 -39q33 -37 33 -82q0 -49 -35 -94l-827 -1034q74 -8 165 -8q397 0 648 65q20 -53 20 -86q0 -47 -35 -63.5t-112 -24.5q-123 -12 -320 -12q-285 0 -469 24 q-37 50 -37 103z" />
<glyph unicode="[" horiz-adv-x="778" d="M307 -389v1864h381q8 -16 8 -48q0 -41 -22.5 -56t-67.5 -15q-88 0 -164 4v-1634q78 4 164 4q51 0 70.5 -17.5t19.5 -54.5q0 -25 -8 -47h-381z" />
<glyph unicode="\" horiz-adv-x="528" d="M72 1464q0 55 73 56q25 0 43 -7q16 -176 62 -475q193 -1217 192 -1231q0 -57 -67 -57q-23 0 -49 6q-16 176 -62 475q-192 1202 -192 1233z" />
<glyph unicode="]" horiz-adv-x="716" d="M61 -342q0 37 19.5 54.5t71.5 17.5q86 0 163 -4v1634q-76 -4 -163 -4q-45 0 -68 15t-23 56q0 29 9 48h381v-1864h-381q-9 22 -9 47z" />
<glyph unicode="^" horiz-adv-x="962" d="M51 887q47 80 193.5 243.5t236.5 251.5q90 -88 236.5 -251.5t193.5 -243.5q-33 -33 -53 -33q-12 0 -34.5 13.5t-52.5 39t-58.5 51t-65.5 63.5t-60.5 62.5t-58 61.5t-45.5 47q-315 -338 -377 -338q-22 0 -55 33z" />
<glyph unicode="_" d="M0 -250q0 33 18.5 59.5t55.5 26.5q6 0 129 -7t213 -7h291q260 0 383 14q6 -18 6 -61q0 -37 -20.5 -61.5t-53.5 -24.5q-31 0 -141.5 8t-167.5 8h-293q-233 0 -414 -16q-6 30 -6 61z" />
<glyph unicode="`" horiz-adv-x="411" d="M-102 1343q0 53 71 95q76 -84 160 -148.5t121 -94.5t37 -60.5t-33 -59.5q-57 43 -156.5 98.5t-149.5 92t-50 77.5z" />
<glyph unicode="a" horiz-adv-x="950" d="M92 268q0 104 49 153.5t135 74.5q154 41 390 55q0 174 -43 240.5t-183 66.5q-57 0 -118.5 -37t-92.5 -106q-94 18 -94 82q0 80 98.5 128t229.5 48q176 0 258 -73t82 -261q0 -16 -2 -120.5t-2 -156.5q0 -236 39 -352q-33 -16 -80 -16q-45 0 -63.5 21.5t-24.5 68.5 q-127 -104 -262 -104q-316 -1 -316 288zM236 268q0 -92 53 -136t135 -44q139 0 235 92q-2 29 -2 96q0 84 7 170q-59 -6 -89 -10t-80.5 -10t-75 -12t-60 -16.5t-53 -23t-37 -27.5t-26.5 -34.5t-7 -44.5z" />
<glyph unicode="b" horiz-adv-x="1040" d="M123 1516q25 6 74 6q92 0 92 -78q0 -27 -2 -270.5t-2 -309.5q150 109 317 109q160 0 259.5 -116t99.5 -345q0 -225 -111 -378.5t-320 -153.5q-225 0 -389 139q14 123 15 440q0 182 -10.5 530.5t-22.5 426.5zM283 201q121 -106 266 -107q135 0 201.5 118t66.5 280 q0 184 -73.5 275t-184.5 91q-147 0 -272 -108q0 -25 1 -131.5t1 -172.5q0 -163 -6 -245z" />
<glyph unicode="c" horiz-adv-x="915" d="M92 465q0 129 41 230.5t108.5 159.5t144.5 88t157 30q104 0 198.5 -47t94.5 -133q0 -74 -99 -88q-20 74 -86.5 113.5t-140.5 39.5q-115 0 -193.5 -101.5t-78.5 -264.5q0 -205 82.5 -301.5t214.5 -96.5q61 0 124.5 26.5t90.5 80.5q82 -33 81 -82q0 -68 -93 -103.5 t-210 -35.5q-186 0 -311 121.5t-125 363.5z" />
<glyph unicode="d" horiz-adv-x="1056" d="M92 475q0 223 126 360.5t304 137.5q123 0 238 -70q4 131 4 213q0 252 -16 400q33 6 73 6q92 0 92 -78q0 -74 -9 -453t-9 -534q0 -342 39 -447q-33 -16 -78 -16q-86 0 -90 102q-123 -117 -268 -116q-164 0 -285 140t-121 355zM236 504q0 -182 86 -299t208 -117 q121 0 230 117q-4 528 -4 592q-109 61 -211 61q-143 0 -226 -97t-83 -257z" />
<glyph unicode="e" horiz-adv-x="962" d="M92 471q0 242 136.5 372t320.5 130q143 0 232 -81t89 -190q0 -80 -28.5 -133t-74.5 -83.5t-133 -47t-171 -20.5t-221 -4q16 -147 88.5 -233.5t201.5 -86.5q158 0 218 107q82 -33 81 -86q0 -61 -93 -98t-208 -37q-193 0 -315.5 121.5t-122.5 369.5zM240 516q90 0 147 2 t129 12.5t113 29t70.5 53t29.5 85.5q0 66 -54 114t-134 48q-123 0 -210 -84t-91 -260z" />
<glyph unicode="f" horiz-adv-x="620" d="M10 883q0 57 76 65q45 4 90 4q0 94 7 165t27.5 139.5t56.5 111.5t98.5 69.5t146.5 26.5q74 0 127 -22.5t53 -59.5q0 -41 -41 -96q-70 63 -178 64q-96 0 -129 -72t-33 -229v-97q199 0 279 9q8 -16 8 -48q0 -41 -21.5 -55t-68.5 -16q-66 -2 -197 -2v-426q0 -272 39 -404 q-37 -16 -78 -16q-57 0 -78.5 24.5t-21.5 81.5q0 25 2 280t2 458q-68 0 -160 -11q-6 21 -6 56z" />
<glyph unicode="g" horiz-adv-x="1060" d="M72 -274q0 119 135 225q-61 45 -62 94q0 78 142 236q-197 88 -197 325q0 156 110.5 261.5t278.5 105.5q154 0 256 -80q86 115 185 115q41 0 70.5 -18.5t29.5 -53.5q0 -29 -16 -72q-16 4 -52 4q-76 0 -151 -41q68 -94 67 -221q0 -168 -114.5 -266t-274.5 -98 q-61 0 -112 12q-31 -37 -54.5 -84t-23.5 -72q0 -51 135 -51h235q303 0 304 -219q0 -154 -148.5 -249t-357.5 -95q-190 0 -287.5 70t-97.5 172zM215 -268q0 -133 248 -133q180 0 274 57t94 143q0 66 -38.5 90.5t-120.5 24.5h-211q-117 0 -170 10q-76 -112 -76 -192zM233 625 q0 -117 64.5 -193t179.5 -76q133 0 190.5 57.5t57.5 174.5q0 115 -66.5 192.5t-181.5 77.5q-244 0 -244 -233z" />
<glyph unicode="h" horiz-adv-x="1034" d="M123 74q0 16 5 179t10 394.5t5 413.5q0 326 -16 455q33 6 74 6q92 0 92 -78q0 -72 -14 -598q147 127 329 127q276 0 277 -320q0 -6 -4 -133t-4 -201q0 -188 34 -309q-41 -16 -80 -16q-53 0 -76.5 23.5t-23.5 80.5q0 74 6 292t6 259q0 92 -55 150.5t-127 58.5 q-61 0 -145 -38t-137 -97q-8 -291 -9 -383q0 -174 15 -338q-33 -6 -70 -6q-92 0 -92 78z" />
<glyph unicode="i" horiz-adv-x="436" d="M109 1178q0 45 32.5 76.5t75.5 31.5q41 0 71.5 -31.5t30.5 -76.5q0 -47 -32.5 -79t-73.5 -32q-43 0 -73.5 31t-30.5 80zM135 952q33 6 70 6q96 0 96 -77q0 -12 -4 -84t-8 -178.5t-4 -202.5q0 -276 39 -406q-37 -16 -78 -16q-59 0 -80 26.5t-21 90.5q0 33 2.5 161.5 t2.5 200.5q-1 293 -15 479z" />
<glyph unicode="j" horiz-adv-x="460" d="M-276 -410q0 45 53 84q84 -86 211 -86q82 0 132 59.5t50 190.5q0 12 -1 108.5t-3 244t-2 282.5q0 293 -14 479q33 6 69 6q96 0 96 -77q0 -8 -4 -70.5t-8 -176.5t-4 -245q0 -61 4 -239.5t4 -296.5q0 -180 -90 -275.5t-258 -95.5q-94 0 -164.5 30.5t-70.5 77.5zM127 1178 q0 45 33 76.5t76 31.5q41 0 71.5 -31.5t30.5 -76.5q0 -47 -33 -79t-74 -32q-43 0 -73.5 31t-30.5 80z" />
<glyph unicode="k" horiz-adv-x="976" d="M123 1516q33 6 72 6q94 0 94 -78q0 -8 -3 -94t-7.5 -228.5t-4.5 -285.5q145 137 314 137q133 0 202.5 -73t69.5 -179q0 -125 -76.5 -216t-214.5 -106q109 -180 154 -227q63 -66 127 -66q33 0 53 9q18 -37 19 -60q0 -37 -43 -56t-82 -19q-80 0 -148 73q-27 29 -51.5 61.5 t-51 73.5t-43 69t-47 79t-40.5 70q-53 6 -54 43q0 23 11 49q66 -14 104 -15q113 0 174.5 62.5t61.5 144.5q0 70 -42 119t-118 49q-68 0 -145.5 -42t-133.5 -105v-297q0 -272 39 -404q-37 -16 -77 -16q-57 0 -79 24.5t-22 81.5q0 43 2 260.5t2 325.5v238q0 483 -16 592z" />
<glyph unicode="l" horiz-adv-x="436" d="M123 1516q33 6 72 6q94 0 94 -78q0 -8 -3 -109.5t-7.5 -268.5t-4.5 -333v-319q0 -272 39 -404q-37 -16 -77 -16q-57 0 -79 24.5t-22 81.5q0 43 2 260.5t2 325.5v238q0 483 -16 592z" />
<glyph unicode="m" horiz-adv-x="1583" d="M123 942q41 16 74 16q94 0 94 -102q63 51 151 84t170 33q168 0 228 -133q55 55 154.5 94t187.5 39q111 0 180.5 -68.5t69.5 -220.5q0 -4 -3.5 -147.5t-3.5 -217.5q0 -188 35 -309q-41 -16 -80 -16q-53 0 -76.5 23.5t-23.5 80.5q0 74 6 282t6 249q0 117 -48 173t-126 56 q-119 0 -254 -108q4 -279 4 -410q0 -199 13 -338q-33 -6 -70 -6q-92 0 -92 78q0 8 3 82.5t5 203.5t2 269q0 229 -180 229q-117 0 -252 -113q4 -279 4 -405q0 -199 12 -338q-33 -6 -69 -6q-92 0 -92 78q0 8 5 150.5t5 283.5q0 336 -39 434z" />
<glyph unicode="n" horiz-adv-x="1062" d="M123 942q41 16 74 16q94 0 94 -102q61 47 157.5 82t188.5 35q121 0 197.5 -68.5t76.5 -220.5q0 -4 -3 -147.5t-3 -217.5q0 -188 35 -309q-41 -16 -80 -16q-53 0 -76.5 23.5t-23.5 80.5q0 74 6 282t6 249q0 115 -56.5 172t-144.5 57q-139 0 -274 -113q4 -279 4 -405 q0 -199 12 -338q-33 -6 -69 -6q-92 0 -92 78q0 8 5 150.5t5 283.5q0 336 -39 434z" />
<glyph unicode="o" horiz-adv-x="1075" d="M92 475q0 225 123 361.5t322 136.5q201 0 323.5 -136.5t122.5 -361.5t-123 -360t-323 -135q-199 0 -322 135t-123 360zM236 504q0 -176 79.5 -293t221.5 -117q143 0 223 96.5t80 255.5q0 176 -82 294t-221 118q-143 0 -222 -97t-79 -257z" />
<glyph unicode="p" horiz-adv-x="1058" d="M123 942q37 16 80 16q88 0 88 -102q156 117 323 117q154 0 253.5 -109.5t99.5 -333.5q0 -147 -46.5 -269t-148.5 -201.5t-246 -79.5q-121 0 -229 69q0 -10 1 -107.5t2 -132t5 -107.5t12.5 -120t20.5 -84q-37 -16 -82 -16q-59 0 -79.5 26.5t-20.5 90.5q0 201 3 497.5 t3 413.5q0 323 -39 432zM297 745q4 -451 4 -589q94 -61 246 -62q92 0 156.5 62.5t91 151.5t26.5 192q0 184 -70.5 271t-181.5 87q-139 0 -272 -113z" />
<glyph unicode="q" horiz-adv-x="1060" d="M92 473q0 231 127 365.5t318 134.5q229 0 399 -139q-33 -350 -33 -850q0 -383 35 -486q-41 -16 -80 -16q-59 0 -79.5 27.5t-20.5 76.5q0 102 4 272.5t4 221.5q-111 -100 -260 -100q-170 0 -292 141t-122 352zM236 514q0 -190 85 -305t209 -115q133 0 238 113 q2 221 20 553q-106 98 -264 98q-121 0 -204.5 -97t-83.5 -247z" />
<glyph unicode="r" horiz-adv-x="645" d="M123 952q33 6 70 6q88 0 88 -77q0 -4 -1 -28t-1 -44q41 63 109.5 113.5t135.5 50.5q47 0 74 -21.5t27 -58.5q0 -39 -41 -92q-45 39 -99 39q-57 0 -114.5 -45t-96.5 -119q-2 -70 -2 -260q0 -276 39 -406q-37 -16 -78 -16q-59 0 -79.5 26.5t-20.5 90.5q0 33 2 161.5 t2 200.5q0 293 -14 479z" />
<glyph unicode="s" horiz-adv-x="837" d="M82 143q0 59 92 86q23 -66 97.5 -100.5t162.5 -34.5t142.5 39t54.5 121q0 61 -54.5 94t-132 50.5t-155.5 41t-132.5 89t-54.5 173.5q0 119 105.5 195t238.5 76q96 0 188.5 -43t92.5 -119q0 -63 -92 -86q-23 59 -92.5 96t-145.5 37q-70 0 -121 -38t-51 -107 q0 -61 54.5 -96t132 -53.5t155.5 -42t132.5 -85t54.5 -160.5q0 -145 -104.5 -220.5t-248.5 -75.5q-125 0 -222 46.5t-97 116.5z" />
<glyph unicode="t" horiz-adv-x="720" d="M0 879q0 47 30.5 60t104.5 13h58q-4 137 -13 230q31 6 68 6q98 0 98 -78q0 -29 -8 -160q260 0 344 11q8 -16 8 -48q0 -41 -21.5 -55t-68.5 -16q-70 -2 -266 -2q-4 -221 -4 -465q0 -176 40 -231.5t132 -55.5q86 0 147 62q37 -39 37 -74q0 -43 -53 -69.5t-129 -26.5 q-170 0 -240.5 98t-70.5 293q4 371 4 471q-6 0 -191 -15q-6 19 -6 52z" />
<glyph unicode="u" horiz-adv-x="1060" d="M123 942q41 16 80 16q53 0 76.5 -23.5t23.5 -80.5q0 -74 -6 -281.5t-6 -248.5q0 -111 54 -170.5t140 -59.5q147 0 277 113q-2 88 -2 268q0 299 -15 477q33 6 70 6q92 0 92 -77q0 -8 -4 -166t-4 -299q0 -260 39 -406q-41 -16 -76 -16q-94 0 -94 102q-147 -117 -326 -116 q-291 0 -290 288q0 6 3 149.5t3 215.5q0 186 -35 309z" />
<glyph unicode="v" horiz-adv-x="899" d="M-6 907q61 55 112.5 55.5t81.5 -71.5q43 -98 127 -338t125 -406q84 109 169 344.5t85 407.5q0 33 -6 64q31 10 66 10q76 0 75 -78q0 -139 -101 -416.5t-208 -404.5q-39 -47 -65.5 -63.5t-67.5 -16.5q-23 0 -53 6q-47 236 -155.5 533.5t-184.5 373.5z" />
<glyph unicode="w" horiz-adv-x="1419" d="M-6 907q61 55 112.5 55.5t81.5 -71.5q37 -92 111 -334t111 -410q76 109 153.5 344.5t77.5 405.5q0 35 -6 66q31 10 65 10q76 0 76 -74q0 -90 -2 -104q47 -78 108.5 -272.5t100.5 -375.5q76 109 153.5 344.5t77.5 405.5q0 35 -6 66q31 10 66 10q76 0 76 -80 q0 -72 -36 -211t-87 -274q-94 -233 -174 -334q-39 -47 -62.5 -63.5t-62.5 -16.5q-20 0 -51 6q-53 270 -162 586q-33 -104 -62 -178q-94 -233 -174 -334q-39 -47 -62.5 -63.5t-62.5 -16.5q-20 0 -51 6q-45 236 -143 534.5t-166 372.5z" />
<glyph unicode="x" horiz-adv-x="886" d="M51 57q0 25 20.5 65t67.5 98.5t75 92t90.5 102t66.5 72.5q-207 340 -314 408q63 78 117 78q41 0 84 -55q98 -145 205 -320q78 100 138.5 208.5t68.5 166.5q115 -20 114 -78q0 -92 -264 -391q217 -371 336 -445q-59 -80 -115 -79q-41 0 -82 57q-80 109 -233 360 q-84 -96 -166 -220t-98 -197q-111 18 -111 77z" />
<glyph unicode="y" horiz-adv-x="903" d="M0 897q72 66 117 66q47 0 80 -66q49 -98 145 -343t143 -407q88 190 155 409.5t67 346.5q0 10 -5 60q31 10 68 10q72 0 72 -82q0 -96 -73 -326.5t-173 -443.5q-180 -383 -340 -582q-39 -53 -80 -53q-57 0 -113 82q61 39 164 158.5t179 240.5q-72 238 -195 542t-211 388z " />
<glyph unicode="z" horiz-adv-x="929" d="M51 116.5q0 61.5 45 106.5l596 613q-115 12 -221 12q-213 0 -360 -49q-18 45 -19 86q4 49 53 63q49 16 189 17q264 0 440 -41q33 -33 33 -95q0 -59 -35 -94l-604 -629q70 -6 137 -6q219 0 455 62q18 -37 18 -80q0 -29 -17.5 -46.5t-35.5 -22.5t-53 -11q-94 -14 -248 -14 q-207 0 -342 24q-31 43 -31 104.5z" />
<glyph unicode="{" horiz-adv-x="872" d="M143 535v102q115 0 175.5 55.5t60.5 116.5v428q0 119 64.5 173t242.5 54q47 0 74 -2q8 -16 8 -47q0 -41 -23.5 -56.5t-74.5 -15.5q-106 0 -132 -26.5t-26 -104.5v-407q0 -63 -44 -132t-95 -87q51 -18 96 -86t45 -131v-408q0 -43 3 -61.5t17.5 -38t46 -25.5t89.5 -6 q51 0 74.5 -15.5t23.5 -56.5q0 -31 -8 -47q-27 -2 -74 -2q-178 0 -243.5 54.5t-65.5 173.5v428q0 61 -59.5 115.5t-174.5 54.5z" />
<glyph unicode="|" d="M469 1501q33 6 61 6q94 0 95 -77q0 -8 -3.5 -109.5t-7.5 -268.5t-4 -333v-631q0 -483 17 -592q-33 -6 -62 -6q-94 0 -94 78q0 8 4 109.5t7 268.5t3 333v630q0 483 -16 592z" />
<glyph unicode="}" horiz-adv-x="827" d="M61 -242q0 41 24 56.5t75 15.5q57 0 89 6t46 25.5t17 38t3 61.5v408q0 63 45.5 130.5t96.5 86.5q-51 18 -95.5 86.5t-44.5 132.5v407q0 41 -3 60.5t-18 39t-47 25.5t-89 6q-51 0 -75 15.5t-24 56.5q0 31 9 47q27 2 73 2q178 0 243 -54t65 -173v-428q0 -61 60 -116.5 t175 -55.5v-102q-115 0 -174 -54.5t-59 -115.5v-428q0 -119 -65.5 -173.5t-244.5 -54.5q-47 0 -73 2q-9 16 -9 47z" />
<glyph unicode="~" horiz-adv-x="1118" d="M82 547q0 127 201 127q104 0 267 -41t238 -41q135 0 209 72q39 -51 39 -101q0 -66 -73.5 -96.5t-174.5 -30.5q-63 0 -218.5 41t-239.5 41q-135 0 -209 -72q-39 52 -39 101z" />
<glyph unicode="&#xa1;" horiz-adv-x="636" d="M184 843.5q0 55.5 36 92.5t87 37t88 -37t37 -92.5t-37 -93t-88 -37.5t-87 37.5t-36 93zM227 -348q0 57 18.5 229t18.5 320v90q0 164 -33 254q41 20 76 20q82 0 84 -98q2 -27 2 -232.5t8.5 -395t28.5 -273.5q-72 -14 -106 -15q-97 1 -97 101z" />
<glyph unicode="&#xa2;" d="M123 690q0 217 121 341t299 151q-2 49 -11 188q20 6 35 6q55 0 56 -55v-131h16q102 0 213 -44t111 -122q0 -70 -89 -90q-102 141 -235 141h-16v-776h20q131 0 231 141q88 -20 89 -90q0 -78 -111 -122t-213 -44h-16q2 -74 10 -172l-31 -4q-59 0 -59 55v130 q-180 27 -300 149.5t-120 347.5zM279 686q0 -156 73.5 -250t190.5 -125v750q-117 -29 -190.5 -123t-73.5 -252z" />
<glyph unicode="&#xa3;" d="M143 102q145 88 226.5 213t81.5 232q0 63 -25 141q-129 0 -221 -8q-6 18 -6 33q0 49 63 53q74 6 131 6q-8 18 -30.5 67.5t-31.5 74t-19.5 63.5t-10.5 72q0 121 89 225t226 104q59 0 109.5 -29.5t50.5 -86.5q0 -55 -69 -88q-43 72 -138 71q-55 0 -94 -34.5t-39 -102.5 q0 -43 21.5 -94t58.5 -121t55 -115q178 10 269 23q8 -16 8 -47q0 -47 -25.5 -60.5t-81.5 -13.5q-88 0 -139 2q10 -47 10 -88q0 -225 -313 -481q47 -6 178 -7q274 0 451 66q31 -45 30 -82q0 -47 -55 -70q-74 -27 -299 -26q-307 0 -442 24q-19 25 -19 84z" />
<glyph unicode="&#xa5;" d="M14 1286q51 82 119 82q41 0 90 -74q178 -260 334 -551q96 129 205.5 342t114.5 289q8 2 30 2q94 0 94 -80q0 -47 -113.5 -245.5t-223.5 -343.5q188 0 297 10l4 -31q0 -59 -56 -59h-311v-146h31q215 0 332 11l4 -31q0 -59 -56 -60h-311q0 -270 37 -391q-37 -16 -78 -16 q-55 0 -77.5 24.5t-22.5 75.5q2 150 2 307h-19q-215 0 -329 -10q-6 23 -7 35q0 55 56 55h301v146h-21q-215 0 -329 -11q-6 23 -7 35q0 55 56 56h260q-244 464 -406 579z" />
<glyph unicode="&#xa6;" d="M469 393q33 6 61 6q94 0 95 -77q0 -10 -7.5 -147.5t-7.5 -203.5v-82q0 -246 17 -393q-33 -6 -62 -6q-94 0 -94 78q0 10 7 178t7 236v63q0 239 -16 348zM469 1503q33 6 61 6q94 0 95 -77q0 -10 -7.5 -147.5t-7.5 -203.5v-80q0 -246 17 -393q-33 -6 -62 -6q-94 0 -94 78 q0 10 7 178t7 236v61q0 239 -16 348z" />
<glyph unicode="&#xa7;" horiz-adv-x="911" d="M92 4q0 59 92 86q47 -133 273 -133q82 0 133 38t51 122q0 80 -54.5 135t-132 89t-155.5 69.5t-132 103.5t-54 168q0 131 96 217q-51 100 -51 191q0 127 94 206.5t248 79.5q96 0 188 -43t92 -119q0 -63 -92 -86q-23 59 -92.5 96.5t-144.5 37.5q-74 0 -123 -36t-49 -107.5 t38.5 -124t98 -81t128 -63.5t128 -68.5t98.5 -97t39 -149.5q0 -127 -94 -218q53 -88 53 -178q0 -125 -94 -212t-262 -87q-125 0 -222.5 47t-97.5 117zM236 719q0 -82 67.5 -133t183 -102.5t170.5 -98.5q29 47 29 113q0 68 -46 116t-105.5 71.5t-140.5 62t-130 83.5 q-28 -44 -28 -112z" />
<glyph unicode="&#xa8;" horiz-adv-x="526" d="M-27 1178q0 45 33 76.5t76 31.5q41 0 71.5 -31.5t30.5 -76.5q0 -47 -32.5 -79t-73.5 -32q-43 0 -74 31t-31 80zM338 1178q0 45 32.5 76.5t75.5 31.5q41 0 72 -31.5t31 -76.5q0 -47 -33 -79t-74 -32q-43 0 -73.5 31t-30.5 80z" />
<glyph unicode="&#xa9;" horiz-adv-x="1818" d="M266 655q0 311 205 518t506 207q297 0 501.5 -206.5t204.5 -518.5q0 -307 -205.5 -516t-500.5 -209q-301 0 -506 208t-205 517zM414 655.5q0 -272.5 162.5 -440.5t400.5 -168q233 0 396 168t163 440q0 270 -163 439.5t-396 169.5q-238 0 -400.5 -168t-162.5 -440.5z M580 651q0 231 128 351t289 120q55 0 113.5 -16t107 -56t48.5 -94q0 -70 -88 -82q-18 63 -74.5 95t-120.5 32q-98 0 -164.5 -90t-66.5 -235q0 -184 81.5 -269t194.5 -85q121 0 176 77q59 -33 60 -77q0 -49 -76 -85t-178 -36q-78 0 -151 23.5t-137.5 73.5t-103 141t-38.5 212 z" />
<glyph unicode="&#xaa;" horiz-adv-x="618" d="M61 575.5q0 26.5 18.5 48t55.5 21.5q4 0 74 -7t121 -7q152 0 221 14q6 -23 6 -41q0 -37 -19.5 -58.5t-54.5 -21.5q-18 0 -82.5 8.5t-97.5 8.5q-133 0 -235 -17q-7 25 -7 51.5zM88 932q0 102 105 129q88 25 217 29q0 86 -22.5 117.5t-96.5 31.5q-35 0 -71 -18.5t-52 -55.5 q-61 14 -62 49q0 47 61.5 75t139.5 28q106 0 155.5 -40t49.5 -144q0 -8 -1 -65.5t-1 -86.5q0 -133 20 -195q-25 -8 -55 -8q-57 0 -63 49q-70 -57 -146 -57q-178 0 -178 162zM201 936q0 -90 90 -90q74 0 110 43v51q0 55 5 84q-55 -6 -83 -10t-62 -13.5t-47 -24.5t-13 -40z " />
<glyph unicode="&#xab;" horiz-adv-x="970" d="M82 481q203 279 338 391q41 -31 41 -57q0 -29 -73 -137.5t-144 -196.5q72 -88 144.5 -196.5t72.5 -137.5q0 -27 -41 -57q-135 112 -338 391zM469 481q203 279 338 391q41 -31 41 -57q0 -29 -73 -137.5t-144 -196.5q72 -88 144.5 -196.5t72.5 -137.5q0 -27 -41 -57 q-135 112 -338 391z" />
<glyph unicode="&#xac;" d="M102 588q0 76 86 76h727l5 -455q0 -57 -18.5 -81t-72.5 -24q-37 0 -69 17q35 115 35 362v74h-473q-115 0 -205 -31q-15 35 -15 62z" />
<glyph unicode="&#xad;" horiz-adv-x="471" d="M51 522q0 33 17.5 56.5t56.5 23.5q2 0 62.5 -4t107.5 -4q96 0 160 14q6 -18 6 -61q0 -35 -20.5 -57.5t-53.5 -22.5q-12 0 -64.5 5t-93.5 5q-96 0 -172 -16q-6 30 -6 61z" />
<glyph unicode="&#xae;" horiz-adv-x="1243" d="M205 901q0 205 135 341t334 136q195 0 331 -137t136 -340t-136.5 -340t-330.5 -137q-199 0 -334 137t-135 340zM326 901q0 -168 100 -271.5t248 -103.5q145 0 245.5 103.5t100.5 271.5t-100.5 271.5t-245.5 103.5q-147 0 -247.5 -103.5t-100.5 -271.5zM487 1143 q127 10 166 10q221 0 221 -147q0 -111 -131 -138q41 -70 97 -131q16 -16 45 -16q4 -8 4 -23q0 -37 -49 -36q-55 0 -90 51q-6 10 -48.5 66.5t-56.5 80.5q-25 0 -45 6v-53q0 -90 16 -137q-18 -10 -61 -10q-63 0 -63 47q0 6 2 53t2 70v141q-1 107 -9 166zM598 1083 q2 -20 2 -163q41 -8 55 -9q49 0 83 22.5t34 72.5q0 82 -127 81q-14 0 -47 -4z" />
<glyph unicode="&#xaf;" horiz-adv-x="557" d="M0 1184q0 76 61 76q6 0 88 -6.5t121 -6.5h45q135 0 238 13q4 -27 4 -56q0 -76 -61 -76q-6 0 -42 3.5t-90.5 6.5t-101.5 3h-45q-123 0 -213 -13q-4 21 -4 56z" />
<glyph unicode="&#xb0;" horiz-adv-x="831" d="M98 1120q0 137 89 228.5t231 91.5q133 0 219 -89t86 -221q0 -141 -88 -231t-227 -90q-135 0 -222.5 88t-87.5 223zM225 1120q0 -94 47 -153.5t135.5 -59.5t137.5 62.5t49 158.5q0 92 -46 152.5t-132 60.5q-90 0 -140.5 -63.5t-50.5 -157.5z" />
<glyph unicode="&#xb1;" d="M121 74q0 33 18.5 59.5t55.5 26.5q6 0 128.5 -7.5t213.5 -7.5q266 0 391 15q6 -18 6 -62q0 -37 -20.5 -61.5t-53.5 -24.5t-146.5 8.5t-172.5 8.5q-233 0 -414 -17q-6 31 -6 62zM121 586q0 33 18.5 59.5t55.5 26.5q14 0 111 -6.5t183 -8.5q0 180 -16 322q18 6 62 6 q37 0 61.5 -20.5t24.5 -53.5q0 -35 -7.5 -119.5t-7.5 -136.5q221 0 363 17q6 -18 6 -62q0 -37 -20.5 -61.5t-53.5 -24.5q-35 0 -140.5 7.5t-156.5 7.5q0 -121 17 -301q-31 -6 -62 -7q-35 0 -60.5 19.5t-25.5 54.5q0 12 6 78t8 158q-178 -2 -360 -17q-6 31 -6 62z" />
<glyph unicode="&#xb2;" horiz-adv-x="921" d="M123 537q0 29 2 34q229 135 348 279.5t119 261.5q0 72 -47 117t-123 45q-53 0 -112.5 -43t-94.5 -107q-66 6 -65 58q0 63 93 129.5t206 66.5q125 0 200.5 -69.5t75.5 -180.5q0 -129 -116.5 -278.5t-354.5 -286.5q59 -2 174 -2q223 0 334 49q27 -41 26 -82q0 -35 -47 -53 q-66 -25 -278 -24q-152 0 -254 4q-86 0 -86 82z" />
<glyph unicode="&#xb3;" horiz-adv-x="868" d="M123 553q0 43 57 61q80 -84 209 -84q90 0 146.5 46.5t56.5 128.5q0 184 -242 184q-16 0 -25.5 2t-16.5 13t-7 32q0 18 2 29q23 0 37 2q119 10 177 47t58 121q0 68 -34.5 103.5t-120.5 35.5q-111 0 -201 -109q-66 12 -65 66q0 39 43 72q100 76 231 75q141 0 211 -59 t70 -160q0 -164 -177 -221q98 -31 145.5 -93.5t47.5 -139.5q0 -111 -90 -195t-258 -84q-100 0 -177 35t-77 92z" />
<glyph unicode="&#xb4;" horiz-adv-x="411" d="M123 1133q0 35 32.5 60.5t117.5 89t169 155.5q72 -41 72 -95q0 -41 -51 -75q-45 -33 -163 -101.5t-144 -93.5q-33 29 -33 60z" />
<glyph unicode="&#xb5;" horiz-adv-x="1050" d="M113 942q41 16 80 16q53 0 76.5 -23.5t23.5 -80.5q0 -74 -6 -281.5t-6 -248.5q0 -111 54 -170.5t140 -59.5q147 0 277 113q-2 88 -2 268q0 299 -15 477q33 6 70 6q92 0 92 -77q0 -8 -4 -166t-4 -299q0 -260 39 -406q-41 -16 -76 -16q-94 0 -94 102q-61 -51 -147.5 -83.5 t-168.5 -32.5q-113 0 -182 61q-16 -70 -16 -145q0 -184 75 -398q-37 -16 -81 -16q-59 0 -80 26.5t-21 90.5q0 283 4 671q0 6 3 148.5t3 214.5q1 186 -34 309z" />
<glyph unicode="&#xb6;" horiz-adv-x="989" d="M92 803q0 172 105.5 273.5t263.5 101.5q12 0 126.5 -4.5t172.5 -4.5q115 0 178 2q10 -31 10 -49q0 -70 -119 -69h-45q-27 -311 -26 -713q0 -51 4 -221t4 -273q0 -49 -20.5 -76.5t-79.5 -27.5q-39 0 -80 16q35 98 35 465q0 543 20 830q-94 0 -113 4q-20 -186 -20 -576 q0 -35 -92 -35q-133 0 -228.5 99.5t-95.5 257.5z" />
<glyph unicode="&#xb7;" horiz-adv-x="411" d="M82 532.5q0 55.5 37 93.5t88 38t87 -38t36 -93.5t-36 -92.5t-87 -37t-88 37t-37 92.5z" />
<glyph unicode="&#xb8;" horiz-adv-x="317" d="M61 -424q0 33 27 59q31 -18 64 -18q102 0 102 82q0 47 -62.5 99t-62.5 91q0 68 59 177l76 -11q-37 -111 -37 -117t1 -12t5.5 -10t6.5 -8t9 -9t10 -7.5t11.5 -7.5t12.5 -7q96 -55 96 -149q0 -78 -70.5 -140.5t-175.5 -62.5q-72 0 -72 51z" />
<glyph unicode="&#xb9;" horiz-adv-x="784" d="M143 1274q0 59 70 76q133 29 193 28q74 0 73 -69q0 -10 -4 -74t-7 -159t-3 -181v-96q0 -166 12 -250q78 0 156 8q8 -25 8 -41q0 -70 -72 -70q-12 0 -94 2.5t-160 2.5q-102 0 -159 -2q-10 27 -11 43q0 63 109 63h88q0 25 2 160t2 231q0 180 -6 318q-139 -23 -184 -39 q-13 24 -13 49z" />
<glyph unicode="&#xba;" horiz-adv-x="645" d="M61 1042q0 125 72 200t189 75q119 0 190.5 -75t71.5 -199.5t-72 -198.5t-190 -74q-117 0 -189 74.5t-72 197.5zM76 575.5q0 26.5 18.5 48t55.5 21.5q4 0 73.5 -7t120.5 -7q152 0 221 14q6 -23 6 -41q0 -37 -19.5 -58.5t-53.5 -21.5q-18 0 -83 8.5t-98 8.5 q-133 0 -235 -17q-6 25 -6 51.5zM172 1059q0 -90 40 -149.5t110 -59.5q72 0 112.5 48t40.5 128q0 90 -41 150.5t-112.5 60.5t-110.5 -48t-39 -130z" />
<glyph unicode="&#xbb;" horiz-adv-x="970" d="M82 147q0 29 72.5 137.5t144.5 196.5q-72 88 -144.5 196.5t-72.5 137.5q0 27 41 57q135 -113 338 -391q-203 -279 -338 -391q-41 30 -41 57zM469 147q0 29 72.5 137.5t144.5 196.5q-72 88 -144.5 196.5t-72.5 137.5q0 27 41 57q135 -113 338 -391q-203 -279 -338 -391 q-41 30 -41 57z" />
<glyph unicode="&#xbc;" horiz-adv-x="1871" d="M143 1274q0 59 70 76q133 29 193 28q74 0 73 -69q0 -10 -4 -74t-7 -159t-3 -181v-96q0 -166 12 -250q78 0 156 8q8 -25 8 -41q0 -70 -72 -70q-12 0 -94 2.5t-160 2.5q-102 0 -159 -2q-10 27 -11 43q0 63 109 63h88q0 25 2 160t2 231q0 180 -6 318q-139 -23 -184 -39 q-13 24 -13 49zM461 -158q0 16 12 41l598 1198q131 262 203 435q37 0 68.5 -16.5t31.5 -47.5q0 -10 -43 -100q-35 -72 -110.5 -222.5t-206.5 -411.5t-252 -505q-131 -262 -201 -432q-41 0 -70.5 16t-29.5 45zM1040 352q0 35 2 47q72 121 198 274.5t212 229.5q25 23 92 23 q12 0 45 -4q0 -4 -4 -75t-8 -197t-4 -265q98 6 139 25q16 -33 17 -66q0 -51 -37 -63q-33 -12 -119 -15q0 -166 33 -270q-33 -16 -64 -16q-53 0 -71.5 24.5t-18.5 81.5q0 33 2 80t2 98q-274 0 -377 15q-39 1 -39 73zM1151 379q68 -4 305 -4q0 162 4 387q-18 -20 -70.5 -75.5 t-77 -84.5t-70.5 -89t-91 -134z" />
<glyph unicode="&#xbd;" horiz-adv-x="1976" d="M143 1274q0 59 70 76q133 29 193 28q74 0 73 -69q0 -10 -4 -74t-7 -159t-3 -181v-96q0 -166 12 -250q78 0 156 8q8 -25 8 -41q0 -70 -72 -70q-12 0 -94 2.5t-160 2.5q-102 0 -159 -2q-10 27 -11 43q0 63 109 63h88q0 25 2 160t2 231q0 180 -6 318q-139 -23 -184 -39 q-13 24 -13 49zM463 -158q0 16 12 41l598 1198q131 262 203 435q37 0 68.5 -16.5t31.5 -47.5q0 -10 -43 -100q-35 -72 -110.5 -222.5t-206.5 -411.5t-252 -505q-131 -262 -201 -432q-41 0 -70.5 16t-29.5 45zM1178 84q0 29 2 35q229 135 348 279.5t119 260.5q0 72 -47.5 117 t-122.5 45q-53 0 -112.5 -43t-94.5 -106q-66 6 -66 57q0 63 93.5 130t205.5 67q125 0 201 -70t76 -180q0 -129 -117 -278.5t-354 -286.5q59 -2 174 -2q223 0 334 49q27 -39 26 -82q0 -35 -47 -53q-66 -25 -278 -25q-152 0 -254 4q-86 0 -86 82z" />
<glyph unicode="&#xbe;" horiz-adv-x="1921" d="M123 553q0 43 57 61q80 -84 209 -84q90 0 146.5 46.5t56.5 128.5q0 184 -242 184q-16 0 -25.5 2t-16.5 13t-7 32q0 18 2 29q23 0 37 2q119 10 177 47t58 121q0 68 -34.5 103.5t-120.5 35.5q-111 0 -201 -109q-66 12 -65 66q0 39 43 72q100 76 231 75q141 0 211 -59 t70 -160q0 -164 -177 -221q98 -31 145.5 -93.5t47.5 -139.5q0 -111 -90 -195t-258 -84q-100 0 -177 35t-77 92zM510 -158q0 16 12 41l598 1198q131 262 203 435q37 0 68.5 -16.5t31.5 -47.5q0 -10 -43 -100q-35 -72 -110.5 -222.5t-206.5 -411.5t-252 -505 q-131 -262 -201 -432q-41 0 -70.5 16t-29.5 45zM1090 352q0 35 2 47q72 121 197.5 274.5t211.5 229.5q25 23 92 23q12 0 45 -4q0 -4 -4 -75t-8 -197t-4 -265q98 6 139 25q16 -33 17 -66q0 -51 -37 -63q-33 -12 -119 -15q0 -166 33 -270q-33 -16 -64 -16q-53 0 -71.5 24.5 t-18.5 81.5q0 33 2 80t2 98q-274 0 -377 15q-38 1 -38 73zM1200 379q68 -4 305 -4q0 162 4 387q-18 -20 -70.5 -75.5t-77 -84.5t-70.5 -89t-91 -134z" />
<glyph unicode="&#xbf;" horiz-adv-x="731" d="M41 -176q0 92 32.5 165.5t79 121t92.5 90.5t78.5 97t32.5 118q0 61 -22 129q43 20 78 20q94 0 94 -139q0 -70 -33 -133.5t-79 -114.5t-91 -102t-77.5 -116.5t-32.5 -139.5q0 -86 71 -129q43 -25 103 -25q80 0 150.5 42t88.5 112q94 -14 94 -90q0 -82 -90 -130.5 t-215 -48.5q-139 0 -231 56q-123 72 -123 217zM287 843.5q0 55.5 35.5 92.5t87 37t88.5 -37t37 -92.5t-37 -93t-88.5 -37.5t-87 37.5t-35.5 93z" />
<glyph unicode="&#xc0;" horiz-adv-x="1128" d="M10 39q0 25 87 229.5t212 521t197 562.5q39 6 86 6q51 0 71.5 -17.5t43.5 -91.5q129 -416 229 -676q160 -418 229 -553q-57 -41 -98 -40q-66 0 -88 55q-39 100 -141 393q-229 -4 -275 -4q-53 0 -258 4q-137 -346 -172 -471q-68 14 -95.5 32.5t-27.5 49.5zM332 1737 q0 53 71 94q76 -84 160 -148.5t121 -94t37 -60.5t-33 -60q-57 43 -156.5 98.5t-149.5 92.5t-50 78zM356 549q160 -4 250 -4q127 0 189 4q-70 182 -211 616q-18 -47 -94.5 -262t-133.5 -354z" />
<glyph unicode="&#xc1;" horiz-adv-x="1128" d="M10 39q0 25 87 229.5t212 521t197 562.5q39 6 86 6q51 0 71.5 -17.5t43.5 -91.5q129 -416 229 -676q160 -418 229 -553q-57 -41 -98 -40q-66 0 -88 55q-39 100 -141 393q-229 -4 -275 -4q-53 0 -258 4q-137 -346 -172 -471q-68 14 -95.5 32.5t-27.5 49.5zM356 549 q160 -4 250 -4q127 0 189 4q-70 182 -211 616q-18 -47 -94.5 -262t-133.5 -354zM481 1526q0 35 33 60.5t118 89t169 155.5q72 -41 71 -94q0 -41 -51 -76q-45 -33 -162.5 -101.5t-144.5 -93.5q-33 29 -33 60z" />
<glyph unicode="&#xc2;" horiz-adv-x="1128" d="M10 39q0 25 87 229.5t212 521t197 562.5q39 6 86 6q51 0 71.5 -17.5t43.5 -91.5q129 -416 229 -676q160 -418 229 -553q-57 -41 -98 -40q-66 0 -88 55q-39 100 -141 393q-229 -4 -275 -4q-53 0 -258 4q-137 -346 -172 -471q-68 14 -95.5 32.5t-27.5 49.5zM332 1509 q131 158 289 275q96 -61 181 -138t85 -133q0 -37 -47 -57q-39 49 -94.5 95t-92.5 67l-37 20q-12 -10 -37.5 -31.5t-41 -33.5t-38 -29.5t-38 -29t-30.5 -21.5t-27.5 -15t-20.5 -5q-24 -1 -51 36zM356 549q160 -4 250 -4q127 0 189 4q-70 182 -211 616q-18 -47 -94.5 -262 t-133.5 -354z" />
<glyph unicode="&#xc3;" horiz-adv-x="1128" d="M10 39q0 25 87 229.5t212 521t197 562.5q39 6 86 6q51 0 71.5 -17.5t43.5 -91.5q129 -416 229 -676q160 -418 229 -553q-57 -41 -98 -40q-66 0 -88 55q-39 100 -141 393q-229 -4 -275 -4q-53 0 -258 4q-137 -346 -172 -471q-68 14 -95.5 32.5t-27.5 49.5zM311 1520 q0 55 64.5 109t136.5 54q37 0 117 -46t114 -46q47 0 121 86q33 -12 33 -43q0 -57 -63.5 -110.5t-135.5 -53.5q-43 0 -119.5 46.5t-113.5 46.5t-121 -86q-33 14 -33 43zM356 549q160 -4 250 -4q127 0 189 4q-70 182 -211 616q-18 -47 -94.5 -262t-133.5 -354z" />
<glyph unicode="&#xc4;" horiz-adv-x="1128" d="M10 39q0 25 87 229.5t212 521t197 562.5q39 6 86 6q51 0 71.5 -17.5t43.5 -91.5q129 -416 229 -676q160 -418 229 -553q-57 -41 -98 -40q-66 0 -88 55q-39 100 -141 393q-229 -4 -275 -4q-53 0 -258 4q-137 -346 -172 -471q-68 14 -95.5 32.5t-27.5 49.5zM276 1569 q0 45 33 76.5t76 31.5q41 0 71.5 -31.5t30.5 -76.5q0 -47 -32.5 -79t-73.5 -32q-43 0 -74 31t-31 80zM356 549q160 -4 250 -4q127 0 189 4q-70 182 -211 616q-18 -47 -94.5 -262t-133.5 -354zM641 1569q0 45 33 76.5t76 31.5q41 0 71.5 -31.5t30.5 -76.5q0 -47 -33 -79 t-74 -32q-43 0 -73.5 31t-30.5 80z" />
<glyph unicode="&#xc5;" horiz-adv-x="1128" d="M10 39q0 25 87 229.5t212 521t197 562.5q39 6 86 6q51 0 71.5 -17.5t43.5 -91.5q129 -416 229 -676q160 -418 229 -553q-57 -41 -98 -40q-66 0 -88 55q-39 100 -141 393q-229 -4 -275 -4q-53 0 -258 4q-137 -346 -172 -471q-68 14 -95.5 32.5t-27.5 49.5zM356 549 q160 -4 250 -4q127 0 189 4q-70 182 -211 616q-18 -47 -94.5 -262t-133.5 -354zM428 1640.5q0 81.5 50 132t132 50.5q80 0 129 -50.5t49 -132t-49 -132t-129 -50.5q-82 0 -132 50.5t-50 132zM514 1649q0 -53 25.5 -88t70.5 -35q43 0 67.5 27.5t24.5 76.5q0 55 -24.5 90 t-67.5 35q-45 0 -70.5 -28.5t-25.5 -77.5z" />
<glyph unicode="&#xc6;" horiz-adv-x="1564" d="M0 63q0 18 47 106.5t135 246t133 241.5q201 373 328 682q244 25 508 25q295 0 332 -31q18 -16 18 -53q0 -49 -16 -90q-117 43 -381 43q-109 0 -225 -6q8 -90 8 -434h162q172 0 245 8q8 -16 9 -53q0 -47 -21.5 -63.5t-69.5 -18.5q-53 -2 -145 -2h-180q0 -446 14 -537 q90 -4 146 -4q344 0 440 47q16 -41 16 -90q0 -37 -18 -53q-37 -31 -332 -31q-262 0 -324 4q-59 2 -79.5 28.5t-20.5 88.5q0 70 4 307h-139q-49 0 -254 4q-180 -346 -219 -448q-121 17 -121 83zM406 549q160 -4 245 -4h82v323q0 162 -10 316q-31 -59 -137 -279.5t-180 -355.5 z" />
<glyph unicode="&#xc7;" horiz-adv-x="1232" d="M100 680q0 328 174.5 513t470.5 185q160 0 268.5 -64.5t108.5 -158.5q0 -84 -116 -102q-39 100 -123 150t-178 50q-193 0 -315 -152.5t-122 -379.5q0 -262 123 -439.5t344 -177.5q98 0 183.5 43t134.5 127q90 -37 90 -100q0 -72 -111.5 -131t-277.5 -63q-8 -33 -9 -41 q0 -6 1.5 -12.5t5.5 -10.5t6 -8t9 -9t10 -7.5t11.5 -7.5t12.5 -7q96 -55 96 -149q0 -78 -70.5 -140.5t-175.5 -62.5q-72 0 -71 51q0 33 26 59q31 -18 64 -18q102 0 102 82q0 47 -62.5 99t-62.5 91q0 35 23 95q-260 20 -415 210.5t-155 485.5z" />
<glyph unicode="&#xc8;" horiz-adv-x="995" d="M135 1346q219 18 447 18q295 0 331 -31q18 -16 19 -53q0 -49 -17 -90q-117 43 -380 43q-109 0 -226 -6q8 -90 8 -434h162q172 0 246 8q8 -16 8 -53q0 -47 -21.5 -63.5t-68.5 -18.5q-53 -2 -145 -2h-181q0 -446 15 -537q90 -4 145 -4q344 0 441 47q16 -41 16 -90 q0 -37 -19 -53q-37 -31 -331 -31q-262 0 -324 4q-59 2 -79.5 28.5t-20.5 88.5q0 33 2 151.5t2 190.5v409q0 294 -29 478zM205 1747q0 53 71 94q76 -84 160 -148.5t121 -94t37 -60.5t-33 -59q-57 43 -156.5 98t-149.5 92t-50 78z" />
<glyph unicode="&#xc9;" horiz-adv-x="995" d="M135 1346q219 18 447 18q295 0 331 -31q18 -16 19 -53q0 -49 -17 -90q-117 43 -380 43q-109 0 -226 -6q8 -90 8 -434h162q172 0 246 8q8 -16 8 -53q0 -47 -21.5 -63.5t-68.5 -18.5q-53 -2 -145 -2h-181q0 -446 15 -537q90 -4 145 -4q344 0 441 47q16 -41 16 -90 q0 -37 -19 -53q-37 -31 -331 -31q-262 0 -324 4q-59 2 -79.5 28.5t-20.5 88.5q0 33 2 151.5t2 190.5v409q0 294 -29 478zM430 1536q0 35 33 60.5t118 89t169 155.5q72 -41 71 -94q0 -41 -51 -76q-45 -33 -163 -101.5t-144 -92.5q-33 28 -33 59z" />
<glyph unicode="&#xca;" horiz-adv-x="995" d="M135 1346q219 18 447 18q295 0 331 -31q18 -16 19 -53q0 -49 -17 -90q-117 43 -380 43q-109 0 -226 -6q8 -90 8 -434h162q172 0 246 8q8 -16 8 -53q0 -47 -21.5 -63.5t-68.5 -18.5q-53 -2 -145 -2h-181q0 -446 15 -537q90 -4 145 -4q344 0 441 47q16 -41 16 -90 q0 -37 -19 -53q-37 -31 -331 -31q-262 0 -324 4q-59 2 -79.5 28.5t-20.5 88.5q0 33 2 151.5t2 190.5v409q0 294 -29 478zM225 1505q131 158 289 275q96 -61 181 -138t85 -133q0 -37 -47 -57q-39 49 -94 95t-92 67l-37 20q-12 -10 -38 -31.5t-41 -34t-37.5 -29.5t-38 -28.5 t-31 -21.5t-27.5 -15.5t-21 -5.5q-24 0 -51 37z" />
<glyph unicode="&#xcb;" horiz-adv-x="995" d="M135 1346q219 18 447 18q295 0 331 -31q18 -16 19 -53q0 -49 -17 -90q-117 43 -380 43q-109 0 -226 -6q8 -90 8 -434h162q172 0 246 8q8 -16 8 -53q0 -47 -21.5 -63.5t-68.5 -18.5q-53 -2 -145 -2h-181q0 -446 15 -537q90 -4 145 -4q344 0 441 47q16 -41 16 -90 q0 -37 -19 -53q-37 -31 -331 -31q-262 0 -324 4q-59 2 -79.5 28.5t-20.5 88.5q0 33 2 151.5t2 190.5v409q0 294 -29 478zM209 1569q0 45 32.5 76.5t75.5 31.5q41 0 72 -31.5t31 -76.5q0 -47 -33 -79t-74 -32q-43 0 -73.5 31t-30.5 80zM573 1569q0 45 33 76.5t76 31.5 q41 0 71.5 -31.5t30.5 -76.5q0 -47 -32.5 -79t-73.5 -32q-43 0 -74 31t-31 80z" />
<glyph unicode="&#xcc;" horiz-adv-x="452" d="M-70 1747q0 53 72 94q76 -84 160 -148.5t120.5 -94t36.5 -60.5t-32 -59q-57 43 -156.5 98t-150 92t-50.5 78zM135 1358q35 6 84 6q100 0 100 -78q0 -12 -4 -82.5t-8 -176t-4 -200.5v-411q0 -276 39 -406q-37 -16 -96.5 -16t-80 26.5t-20.5 90.5q0 33 2.5 161.5t2.5 200.5 v410q-1 289 -15 475z" />
<glyph unicode="&#xcd;" horiz-adv-x="452" d="M135 1358q35 6 84 6q100 0 100 -78q0 -12 -4 -82.5t-8 -176t-4 -200.5v-411q0 -276 39 -406q-37 -16 -96.5 -16t-80 26.5t-20.5 90.5q0 33 2.5 161.5t2.5 200.5v410q-1 289 -15 475zM156 1536q0 35 32.5 60.5t117.5 89t169 155.5q72 -41 72 -94q0 -41 -51 -76 q-45 -33 -163 -101.5t-145 -92.5q-32 28 -32 59z" />
<glyph unicode="&#xce;" horiz-adv-x="452" d="M-49 1505q131 158 289 275q96 -61 181 -138t85 -133q0 -37 -47 -57q-39 49 -94.5 95t-92.5 67l-36 20q-12 -10 -38 -31.5t-41.5 -34t-38 -29.5t-37.5 -28.5t-30.5 -21.5t-28 -15.5t-20.5 -5.5q-24 0 -51 37zM135 1358q35 6 84 6q100 0 100 -78q0 -12 -4 -82.5t-8 -176 t-4 -200.5v-411q0 -276 39 -406q-37 -16 -96.5 -16t-80 26.5t-20.5 90.5q0 33 2.5 161.5t2.5 200.5v410q-1 289 -15 475z" />
<glyph unicode="&#xcf;" horiz-adv-x="452" d="M-68 1569q0 45 33 76.5t76 31.5q41 0 71.5 -31.5t30.5 -76.5q0 -47 -32.5 -79t-73.5 -32q-43 0 -74 31t-31 80zM135 1358q35 6 84 6q100 0 100 -78q0 -12 -4 -82.5t-8 -176t-4 -200.5v-411q0 -276 39 -406q-37 -16 -96.5 -16t-80 26.5t-20.5 90.5q0 33 2.5 161.5 t2.5 200.5v410q-1 289 -15 475zM297 1569q0 45 32.5 76.5t76.5 31.5q41 0 71.5 -31.5t30.5 -76.5q0 -47 -33 -79t-74 -32q-43 0 -73.5 31t-30.5 80z" />
<glyph unicode="&#xd0;" horiz-adv-x="1300" d="M-33 709q0 41 18.5 60t71.5 22q12 0 50 1t61 1q0 362 -27 561q123 25 318 24q160 0 286.5 -34.5t232 -111.5t164 -216t58.5 -334q0 -307 -164 -504.5t-467 -197.5q-279 0 -434 129q27 172 31 555q-119 0 -191 -9q-8 25 -8 54zM293 178q111 -74 272 -74q129 0 223.5 49.5 t144.5 132.5t72.5 171t22.5 184q0 305 -151.5 458.5t-432.5 153.5q-45 0 -131 -8q8 -141 9 -334v-118h131q170 0 233 8q8 -25 8 -53q0 -41 -18.5 -60.5t-71.5 -21.5q-68 -2 -285 -2q-6 -285 -26 -486z" />
<glyph unicode="&#xd1;" horiz-adv-x="1265" d="M135 1350q39 16 96 16q41 0 64.5 -14.5t50.5 -44.5q102 -117 295 -436.5t352 -626.5q-12 164 -12 639q0 289 -14 475q35 6 63 6q100 0 100 -78q0 -12 -4 -82.5t-8 -176t-4 -200.5v-350q0 -289 14 -475q-33 -8 -67 -8q-70 0 -107 55q-84 129 -290.5 494.5t-354.5 586.5 q-2 -78 -2 -714q0 -276 39 -406q-37 -16 -76 -16q-59 0 -79.5 26.5t-20.5 90.5q0 33 2 161.5t2 200.5v410q0 342 -39 467zM350 1530q0 55 64.5 109.5t136.5 54.5q37 0 117 -46t114 -46q47 0 121 86q33 -12 33 -43q0 -57 -63.5 -110.5t-135.5 -53.5q-43 0 -119.5 46 t-113.5 46t-121 -86q-33 14 -33 43z" />
<glyph unicode="&#xd2;" horiz-adv-x="1458" d="M100 678q0 322 170 511t457 189q289 0 460 -189.5t171 -510.5q0 -317 -171 -507.5t-460 -190.5q-287 0 -457 190.5t-170 507.5zM268 741q0 -121 25.5 -229.5t77 -202.5t142.5 -149.5t212 -55.5q221 0 341 148.5t120 388.5q0 115 -25.5 219.5t-77 194.5t-143.5 144 t-211 54q-211 0 -336 -144.5t-125 -367.5zM420 1747q0 53 72 94q76 -84 159.5 -148.5t120.5 -94t37 -60.5t-33 -59q-57 43 -156.5 98t-149.5 92t-50 78z" />
<glyph unicode="&#xd3;" horiz-adv-x="1458" d="M100 678q0 322 170 511t457 189q289 0 460 -189.5t171 -510.5q0 -317 -171 -507.5t-460 -190.5q-287 0 -457 190.5t-170 507.5zM268 741q0 -121 25.5 -229.5t77 -202.5t142.5 -149.5t212 -55.5q221 0 341 148.5t120 388.5q0 115 -25.5 219.5t-77 194.5t-143.5 144 t-211 54q-211 0 -336 -144.5t-125 -367.5zM645 1536q0 35 33 60.5t118 89t169 155.5q72 -41 71 -94q0 -41 -51 -76q-45 -33 -162.5 -101.5t-144.5 -92.5q-33 28 -33 59z" />
<glyph unicode="&#xd4;" horiz-adv-x="1458" d="M100 678q0 322 170 511t457 189q289 0 460 -189.5t171 -510.5q0 -317 -171 -507.5t-460 -190.5q-287 0 -457 190.5t-170 507.5zM268 741q0 -121 25.5 -229.5t77 -202.5t142.5 -149.5t212 -55.5q221 0 341 148.5t120 388.5q0 115 -25.5 219.5t-77 194.5t-143.5 144 t-211 54q-211 0 -336 -144.5t-125 -367.5zM440 1503q131 158 289 275q96 -61 181 -138t85 -133q0 -37 -47 -57q-39 49 -94 94t-92 66l-37 22q-12 -10 -37.5 -31.5t-41 -34t-38 -29.5t-38 -28.5t-31 -21.5t-27.5 -15.5t-20 -5.5q-25 0 -52 37z" />
<glyph unicode="&#xd5;" horiz-adv-x="1458" d="M100 678q0 322 170 511t457 189q289 0 460 -189.5t171 -510.5q0 -317 -171 -507.5t-460 -190.5q-287 0 -457 190.5t-170 507.5zM268 741q0 -121 25.5 -229.5t77 -202.5t142.5 -149.5t212 -55.5q221 0 341 148.5t120 388.5q0 115 -25.5 219.5t-77 194.5t-143.5 144 t-211 54q-211 0 -336 -144.5t-125 -367.5zM436 1530q0 55 64.5 109.5t136.5 54.5q37 0 117 -46t114 -46q47 0 121 86q33 -12 33 -43q0 -57 -63.5 -110.5t-135.5 -53.5q-43 0 -119.5 46t-113.5 46t-121 -86q-33 14 -33 43z" />
<glyph unicode="&#xd6;" horiz-adv-x="1458" d="M100 678q0 322 170 511t457 189q289 0 460 -189.5t171 -510.5q0 -317 -171 -507.5t-460 -190.5q-287 0 -457 190.5t-170 507.5zM268 741q0 -121 25.5 -229.5t77 -202.5t142.5 -149.5t212 -55.5q221 0 341 148.5t120 388.5q0 115 -25.5 219.5t-77 194.5t-143.5 144 t-211 54q-211 0 -336 -144.5t-125 -367.5zM440 1569q0 45 33 76.5t76 31.5q41 0 71.5 -31.5t30.5 -76.5q0 -47 -32.5 -79t-73.5 -32q-43 0 -74 31t-31 80zM805 1569q0 45 32.5 76.5t75.5 31.5q41 0 72 -31.5t31 -76.5q0 -47 -33 -79t-74 -32q-43 0 -73.5 31t-30.5 80z" />
<glyph unicode="&#xd7;" d="M125 836q49 78 102 77q27 0 49 -22q12 -12 56.5 -60.5t108 -116t106.5 -114.5q225 225 317 340q29 -16 52.5 -45t23.5 -59q0 -27 -20 -48q-27 -27 -142.5 -133t-148.5 -139q225 -225 340 -317q-45 -76 -105 -76q-27 0 -47 20q-27 27 -133 142.5t-139 148.5 q-203 -199 -318 -340q-78 53 -77 105q0 27 20 47q2 0 293 272q-256 246 -338 318z" />
<glyph unicode="&#xd8;" horiz-adv-x="1458" d="M100 678q0 322 170 511t457 189q170 0 305 -69q72 135 109 215q35 -2 64.5 -19.5t29.5 -44.5q0 -18 -12 -41l-97 -174q231 -186 232 -567q0 -317 -171 -507.5t-460 -190.5q-145 0 -266 51q-63 -119 -103 -203q-94 12 -94 66q0 14 12 38l86 156q-262 184 -262 590z M268 741q0 -344 168 -520l531 961q-100 72 -238 71q-211 0 -336 -144.5t-125 -367.5zM524 154q86 -49 201 -50q221 0 341 148.5t120 388.5q0 291 -137 463z" />
<glyph unicode="&#xd9;" horiz-adv-x="1318" d="M147 1348q41 16 93 16q59 0 86.5 -23.5t27.5 -80.5q0 -88 -15 -388.5t-15 -465.5q0 -143 82.5 -219t191.5 -76q100 0 211 49t180 114q0 14 1 70.5t1 193.5v345q0 289 -14 475q35 6 84 6q100 0 100 -78q0 -4 -4 -75.5t-8 -224t-4 -353.5q0 -317 6 -425t33 -198 q-37 -16 -97 -16q-57 0 -78.5 25.5t-21.5 95.5v22q-82 -70 -196.5 -113.5t-210.5 -43.5q-193 0 -304.5 91t-111.5 322q0 121 9 328t9 305q0 195 -35 322zM356 1747q0 53 72 94q76 -84 160 -148.5t120.5 -94t36.5 -60.5t-32 -59q-57 43 -156.5 98t-150 92t-50.5 78z" />
<glyph unicode="&#xda;" horiz-adv-x="1318" d="M147 1348q41 16 93 16q59 0 86.5 -23.5t27.5 -80.5q0 -88 -15 -388.5t-15 -465.5q0 -143 82.5 -219t191.5 -76q100 0 211 49t180 114q0 14 1 70.5t1 193.5v345q0 289 -14 475q35 6 84 6q100 0 100 -78q0 -4 -4 -75.5t-8 -224t-4 -353.5q0 -317 6 -425t33 -198 q-37 -16 -97 -16q-57 0 -78.5 25.5t-21.5 95.5v22q-82 -70 -196.5 -113.5t-210.5 -43.5q-193 0 -304.5 91t-111.5 322q0 121 9 328t9 305q0 195 -35 322zM582 1536q0 35 32.5 60.5t117.5 89t169 155.5q72 -41 72 -94q0 -41 -51 -76q-45 -33 -163 -101.5t-145 -92.5 q-32 28 -32 59z" />
<glyph unicode="&#xdb;" horiz-adv-x="1318" d="M147 1348q41 16 93 16q59 0 86.5 -23.5t27.5 -80.5q0 -88 -15 -388.5t-15 -465.5q0 -143 82.5 -219t191.5 -76q100 0 211 49t180 114q0 14 1 70.5t1 193.5v345q0 289 -14 475q35 6 84 6q100 0 100 -78q0 -4 -4 -75.5t-8 -224t-4 -353.5q0 -317 6 -425t33 -198 q-37 -16 -97 -16q-57 0 -78.5 25.5t-21.5 95.5v22q-82 -70 -196.5 -113.5t-210.5 -43.5q-193 0 -304.5 91t-111.5 322q0 121 9 328t9 305q0 195 -35 322zM377 1505q131 158 289 275q96 -61 181 -138t85 -133q0 -37 -47 -57q-39 49 -94.5 95t-92.5 67l-36 20 q-12 -10 -38 -31.5t-41.5 -34t-38 -29.5t-37.5 -28.5t-30.5 -21.5t-28 -15.5t-20.5 -5.5q-24 0 -51 37z" />
<glyph unicode="&#xdc;" horiz-adv-x="1318" d="M147 1348q41 16 93 16q59 0 86.5 -23.5t27.5 -80.5q0 -88 -15 -388.5t-15 -465.5q0 -143 82.5 -219t191.5 -76q100 0 211 49t180 114q0 14 1 70.5t1 193.5v345q0 289 -14 475q35 6 84 6q100 0 100 -78q0 -4 -4 -75.5t-8 -224t-4 -353.5q0 -317 6 -425t33 -198 q-37 -16 -97 -16q-57 0 -78.5 25.5t-21.5 95.5v22q-82 -70 -196.5 -113.5t-210.5 -43.5q-193 0 -304.5 91t-111.5 322q0 121 9 328t9 305q0 195 -35 322zM371 1569q0 45 32.5 76.5t75.5 31.5q41 0 72 -31.5t31 -76.5q0 -47 -33 -79t-74 -32q-43 0 -73.5 31t-30.5 80z M735 1569q0 45 33 76.5t76 31.5q41 0 71.5 -31.5t30.5 -76.5q0 -47 -32.5 -79t-73.5 -32q-43 0 -74 31t-31 80z" />
<glyph unicode="&#xdd;" horiz-adv-x="1026" d="M-20 1268q6 8 25.5 30.5t26.5 28.5l21 19q14 12 26.5 16t29.5 4q51 0 98 -70q123 -178 328 -557q98 129 209.5 345t115.5 292q156 -10 156 -92q0 -51 -155.5 -289.5t-272.5 -378.5v-174q0 -299 39 -432q-37 -16 -96.5 -16t-80 26.5t-20.5 90.5q2 188 4 364v127 q-296 560 -454 666zM422 1536q0 35 32.5 60.5t117.5 89t169 155.5q72 -41 72 -94q0 -41 -51 -76q-45 -33 -163 -101.5t-144 -92.5q-33 28 -33 59z" />
<glyph unicode="&#xde;" horiz-adv-x="1048" d="M135 1358q35 6 84 6q100 0 100 -78q0 -8 -1 -27.5t-3 -56.5t-4 -65q66 6 117 6q549 0 549 -443q0 -213 -128 -325.5t-300 -112.5q-145 0 -246 66q0 -190 39 -318q-37 -16 -96.5 -16t-80 26.5t-20.5 90.5q0 33 2.5 161.5t2.5 200.5v410q-1 289 -15 475zM303 438 q90 -51 205 -51q139 0 218 81t79 218q0 188 -88 260t-275 72q-47 0 -137 -8q-2 -57 -2 -318v-254z" />
<glyph unicode="&#xdf;" horiz-adv-x="1064" d="M133 10q41 137 41 404v536q0 211 105.5 319.5t250.5 108.5q119 0 201 -59t82 -166q0 -76 -26.5 -133t-64.5 -90t-77 -57.5t-65.5 -54.5t-26.5 -64q0 -43 43 -84t104.5 -79t124 -80t105.5 -107.5t43 -143.5q0 -111 -84 -195.5t-205 -84.5q-94 0 -167 47t-73 116 q0 59 93 86q12 -66 60 -100.5t103 -34.5q51 0 90 42t39 100q0 63 -40.5 115t-99 91t-118 79t-100.5 97.5t-41 126.5q0 53 38 99.5t82 76t82 81t38 110.5q0 72 -42 112t-110 40q-86 0 -147.5 -64.5t-61.5 -193.5v-605q0 -80 1 -181t1 -120q0 -57 -21.5 -81.5t-78.5 -24.5 q-41 0 -78 16z" />
<glyph unicode="&#xe0;" horiz-adv-x="950" d="M92 268q0 104 49 153.5t135 74.5q154 41 390 55q0 174 -43 240.5t-183 66.5q-57 0 -118.5 -37t-92.5 -106q-94 18 -94 82q0 80 98.5 128t229.5 48q176 0 258 -73t82 -261q0 -16 -2 -120.5t-2 -156.5q0 -236 39 -352q-33 -16 -80 -16q-45 0 -63.5 21.5t-24.5 68.5 q-127 -104 -262 -104q-316 -1 -316 288zM172 1343q0 53 72 95q76 -84 159.5 -148.5t120.5 -94.5t37 -60.5t-33 -59.5q-57 43 -156.5 98.5t-149.5 92t-50 77.5zM236 268q0 -92 53 -136t135 -44q139 0 235 92q-2 29 -2 96q0 84 7 170q-59 -6 -89 -10t-80.5 -10t-75 -12 t-60 -16.5t-53 -23t-37 -27.5t-26.5 -34.5t-7 -44.5z" />
<glyph unicode="&#xe1;" horiz-adv-x="950" d="M92 268q0 104 49 153.5t135 74.5q154 41 390 55q0 174 -43 240.5t-183 66.5q-57 0 -118.5 -37t-92.5 -106q-94 18 -94 82q0 80 98.5 128t229.5 48q176 0 258 -73t82 -261q0 -16 -2 -120.5t-2 -156.5q0 -236 39 -352q-33 -16 -80 -16q-45 0 -63.5 21.5t-24.5 68.5 q-127 -104 -262 -104q-316 -1 -316 288zM236 268q0 -92 53 -136t135 -44q139 0 235 92q-2 29 -2 96q0 84 7 170q-59 -6 -89 -10t-80.5 -10t-75 -12t-60 -16.5t-53 -23t-37 -27.5t-26.5 -34.5t-7 -44.5zM397 1133q0 35 33 60.5t118 89t169 155.5q72 -41 71 -95q0 -41 -51 -75 q-45 -33 -162.5 -101.5t-144.5 -93.5q-33 29 -33 60z" />
<glyph unicode="&#xe2;" horiz-adv-x="950" d="M92 268q0 104 49 153.5t135 74.5q154 41 390 55q0 174 -43 240.5t-183 66.5q-57 0 -118.5 -37t-92.5 -106q-94 18 -94 82q0 80 98.5 128t229.5 48q176 0 258 -73t82 -261q0 -16 -2 -120.5t-2 -156.5q0 -236 39 -352q-33 -16 -80 -16q-45 0 -63.5 21.5t-24.5 68.5 q-127 -104 -262 -104q-316 -1 -316 288zM193 1116q131 158 288 275q96 -61 181.5 -138t85.5 -133q0 -37 -48 -57q-39 49 -94 95t-92 67l-37 20q-12 -10 -37.5 -31.5t-41 -34t-38 -29.5t-38 -28.5t-31 -21.5t-27.5 -15.5t-20 -5.5q-24 0 -51 37zM236 268q0 -92 53 -136 t135 -44q139 0 235 92q-2 29 -2 96q0 84 7 170q-59 -6 -89 -10t-80.5 -10t-75 -12t-60 -16.5t-53 -23t-37 -27.5t-26.5 -34.5t-7 -44.5z" />
<glyph unicode="&#xe3;" horiz-adv-x="950" d="M92 268q0 104 49 153.5t135 74.5q154 41 390 55q0 174 -43 240.5t-183 66.5q-57 0 -118.5 -37t-92.5 -106q-94 18 -94 82q0 80 98.5 128t229.5 48q176 0 258 -73t82 -261q0 -16 -2 -120.5t-2 -156.5q0 -236 39 -352q-33 -16 -80 -16q-45 0 -63.5 21.5t-24.5 68.5 q-127 -104 -262 -104q-316 -1 -316 288zM186 1155q0 55 64.5 109.5t136.5 54.5q37 0 117 -46t114 -46q47 0 121 86q33 -12 33 -43q0 -57 -63.5 -110.5t-135.5 -53.5q-43 0 -119.5 46t-113.5 46t-121 -86q-33 14 -33 43zM236 268q0 -92 53 -136t135 -44q139 0 235 92 q-2 29 -2 96q0 84 7 170q-59 -6 -89 -10t-80.5 -10t-75 -12t-60 -16.5t-53 -23t-37 -27.5t-26.5 -34.5t-7 -44.5z" />
<glyph unicode="&#xe4;" horiz-adv-x="950" d="M92 268q0 104 49 153.5t135 74.5q154 41 390 55q0 174 -43 240.5t-183 66.5q-57 0 -118.5 -37t-92.5 -106q-94 18 -94 82q0 80 98.5 128t229.5 48q176 0 258 -73t82 -261q0 -16 -2 -120.5t-2 -156.5q0 -236 39 -352q-33 -16 -80 -16q-45 0 -63.5 21.5t-24.5 68.5 q-127 -104 -262 -104q-316 -1 -316 288zM186 1178q0 45 33 76.5t76 31.5q41 0 71.5 -31.5t30.5 -76.5q0 -47 -32.5 -79t-73.5 -32q-43 0 -74 31t-31 80zM236 268q0 -92 53 -136t135 -44q139 0 235 92q-2 29 -2 96q0 84 7 170q-59 -6 -89 -10t-80.5 -10t-75 -12t-60 -16.5 t-53 -23t-37 -27.5t-26.5 -34.5t-7 -44.5zM551 1178q0 45 32.5 76.5t75.5 31.5q41 0 72 -31.5t31 -76.5q0 -47 -33 -79t-74 -32q-43 0 -73.5 31t-30.5 80z" />
<glyph unicode="&#xe5;" horiz-adv-x="950" d="M92 268q0 104 49 153.5t135 74.5q154 41 390 55q0 174 -43 240.5t-183 66.5q-57 0 -118.5 -37t-92.5 -106q-94 18 -94 82q0 80 98.5 128t229.5 48q176 0 258 -73t82 -261q0 -16 -2 -120.5t-2 -156.5q0 -236 39 -352q-33 -16 -80 -16q-45 0 -63.5 21.5t-24.5 68.5 q-127 -104 -262 -104q-316 -1 -316 288zM236 268q0 -92 53 -136t135 -44q139 0 235 92q-2 29 -2 96q0 84 7 170q-59 -6 -89 -10t-80.5 -10t-75 -12t-60 -16.5t-53 -23t-37 -27.5t-26.5 -34.5t-7 -44.5zM299 1247q0 82 50 132.5t132 50.5q80 0 129 -50.5t49 -132.5t-49 -132 t-129 -50q-82 0 -132 50t-50 132zM385 1255q0 -53 25.5 -87.5t70.5 -34.5q43 0 67.5 27.5t24.5 76.5q0 55 -24.5 90t-67.5 35q-45 0 -70.5 -29t-25.5 -78z" />
<glyph unicode="&#xe6;" horiz-adv-x="1533" d="M92 268q0 104 49 153.5t135 74.5q154 41 390 55q0 174 -43 240.5t-183 66.5q-57 0 -118.5 -37t-92.5 -106q-94 18 -94 82q0 80 98.5 128t229.5 48q246 0 309 -160q133 160 348 160q143 0 232.5 -81t89.5 -190q0 -80 -29 -133t-75 -83.5t-133 -47t-171 -20.5t-221 -4 q16 -141 103.5 -230.5t218.5 -89.5q141 0 217 99q63 -37 63 -89q0 -55 -86 -89.5t-196 -34.5q-248 0 -375 170q-68 -86 -165 -128t-185 -42q-316 -1 -316 288zM236 268q0 -92 53 -136t135 -44q160 0 289 135q-47 98 -49 223q-111 -10 -173.5 -20t-129 -28.5t-96 -50.5 t-29.5 -79zM813 516q90 0 147.5 2t129 12.5t112.5 29t69.5 53t28.5 85.5q0 66 -54 114t-134 48q-121 0 -208 -84t-91 -260z" />
<glyph unicode="&#xe7;" horiz-adv-x="913" d="M92 465q0 129 41 230.5t108.5 159.5t144.5 88t157 30q98 0 194.5 -47t96.5 -131q0 -76 -95 -90q-23 74 -90 113.5t-139 39.5q-115 0 -193.5 -101.5t-78.5 -264.5q0 -203 92 -300.5t225 -97.5q135 0 213 99q63 -37 63 -84q0 -59 -86 -94t-196 -35h-14q-8 -33 -9 -41 q0 -6 1 -12.5t5.5 -10.5t6.5 -8t9 -9t10 -7.5t11.5 -7.5t12.5 -7q96 -55 96 -149q0 -78 -70.5 -140.5t-175.5 -62.5q-72 0 -72 51q0 33 27 59q31 -18 64 -18q102 0 102 82q0 47 -62.5 99t-62.5 91q0 33 25 101q-158 29 -259.5 147.5t-101.5 327.5z" />
<glyph unicode="&#xe8;" horiz-adv-x="962" d="M92 471q0 242 136.5 372t320.5 130q143 0 232 -81t89 -190q0 -80 -28.5 -133t-74.5 -83.5t-133 -47t-171 -20.5t-221 -4q16 -147 88.5 -233.5t201.5 -86.5q158 0 218 107q82 -33 81 -86q0 -61 -93 -98t-208 -37q-193 0 -315.5 121.5t-122.5 369.5zM240 516q90 0 147 2 t129 12.5t113 29t70.5 53t29.5 85.5q0 66 -54 114t-134 48q-123 0 -210 -84t-91 -260zM254 1343q0 53 72 95q76 -84 159.5 -148.5t120.5 -94.5t37 -60.5t-33 -59.5q-57 43 -156.5 98.5t-149.5 92t-50 77.5z" />
<glyph unicode="&#xe9;" horiz-adv-x="962" d="M92 471q0 242 136.5 372t320.5 130q143 0 232 -81t89 -190q0 -80 -28.5 -133t-74.5 -83.5t-133 -47t-171 -20.5t-221 -4q16 -147 88.5 -233.5t201.5 -86.5q158 0 218 107q82 -33 81 -86q0 -61 -93 -98t-208 -37q-193 0 -315.5 121.5t-122.5 369.5zM240 516q90 0 147 2 t129 12.5t113 29t70.5 53t29.5 85.5q0 66 -54 114t-134 48q-123 0 -210 -84t-91 -260zM418 1133q0 35 32.5 60.5t117.5 89t169 155.5q72 -41 72 -95q0 -41 -51 -75q-45 -33 -163 -101.5t-144 -93.5q-33 29 -33 60z" />
<glyph unicode="&#xea;" horiz-adv-x="962" d="M92 471q0 242 136.5 372t320.5 130q143 0 232 -81t89 -190q0 -80 -28.5 -133t-74.5 -83.5t-133 -47t-171 -20.5t-221 -4q16 -147 88.5 -233.5t201.5 -86.5q158 0 218 107q82 -33 81 -86q0 -61 -93 -98t-208 -37q-193 0 -315.5 121.5t-122.5 369.5zM240 516q90 0 147 2 t129 12.5t113 29t70.5 53t29.5 85.5q0 66 -54 114t-134 48q-123 0 -210 -84t-91 -260zM254 1116q131 158 289 275q96 -61 181 -138t85 -133q0 -37 -47 -57q-39 49 -94.5 95t-92.5 67l-36 20q-12 -10 -38 -31.5t-41.5 -34t-38 -29.5t-37.5 -28.5t-30.5 -21.5t-28 -15.5 t-20.5 -5.5q-24 0 -51 37z" />
<glyph unicode="&#xeb;" horiz-adv-x="962" d="M92 471q0 242 136.5 372t320.5 130q143 0 232 -81t89 -190q0 -80 -28.5 -133t-74.5 -83.5t-133 -47t-171 -20.5t-221 -4q16 -147 88.5 -233.5t201.5 -86.5q158 0 218 107q82 -33 81 -86q0 -61 -93 -98t-208 -37q-193 0 -315.5 121.5t-122.5 369.5zM240 516q90 0 147 2 t129 12.5t113 29t70.5 53t29.5 85.5q0 66 -54 114t-134 48q-123 0 -210 -84t-91 -260zM250 1178q0 45 32.5 76.5t75.5 31.5q41 0 72 -31.5t31 -76.5q0 -47 -33 -79t-74 -32q-43 0 -73.5 31t-30.5 80zM614 1178q0 45 33 76.5t76 31.5q41 0 71.5 -31.5t30.5 -76.5 q0 -47 -32.5 -79t-73.5 -32q-43 0 -74 31t-31 80z" />
<glyph unicode="&#xec;" horiz-adv-x="436" d="M-49 1343q0 53 72 95q76 -84 159.5 -148.5t120.5 -94.5t37 -60.5t-33 -59.5q-57 43 -156.5 98.5t-149.5 92t-50 77.5zM135 952q33 6 70 6q96 0 96 -77q0 -12 -4 -84t-8 -178.5t-4 -202.5q0 -276 39 -406q-37 -16 -78 -16q-59 0 -80 26.5t-21 90.5q0 33 2.5 161.5 t2.5 200.5q-1 293 -15 479z" />
<glyph unicode="&#xed;" horiz-adv-x="436" d="M74 1133q0 35 32.5 60.5t117.5 89t169 155.5q72 -41 72 -95q0 -41 -51 -75q-45 -33 -163 -101.5t-145 -93.5q-32 29 -32 60zM135 952q33 6 70 6q96 0 96 -77q0 -12 -4 -84t-8 -178.5t-4 -202.5q0 -276 39 -406q-37 -16 -78 -16q-59 0 -80 26.5t-21 90.5q0 33 2.5 161.5 t2.5 200.5q-1 293 -15 479z" />
<glyph unicode="&#xee;" horiz-adv-x="436" d="M-63 1116q131 158 288 275q96 -61 181.5 -138t85.5 -133q0 -37 -48 -57q-39 49 -94 95t-92 67l-37 20q-12 -10 -37.5 -31.5t-41 -34t-38 -29.5t-38 -28.5t-31 -21.5t-27.5 -15.5t-20 -5.5q-24 0 -51 37zM135 952q33 6 70 6q96 0 96 -77q0 -12 -4 -84t-8 -178.5t-4 -202.5 q0 -276 39 -406q-37 -16 -78 -16q-59 0 -80 26.5t-21 90.5q0 33 2.5 161.5t2.5 200.5q-1 293 -15 479z" />
<glyph unicode="&#xef;" horiz-adv-x="436" d="M-70 1178q0 45 33 76.5t76 31.5q41 0 71.5 -31.5t30.5 -76.5q0 -47 -32.5 -79t-73.5 -32q-43 0 -74 31t-31 80zM135 952q33 6 70 6q96 0 96 -77q0 -12 -4 -84t-8 -178.5t-4 -202.5q0 -276 39 -406q-37 -16 -78 -16q-59 0 -80 26.5t-21 90.5q0 33 2.5 161.5t2.5 200.5 q-1 293 -15 479zM295 1178q0 45 32.5 76.5t75.5 31.5q41 0 72 -31.5t31 -76.5q0 -47 -33 -79t-74 -32q-43 0 -73.5 31t-30.5 80z" />
<glyph unicode="&#xf0;" horiz-adv-x="1083" d="M92 475q0 225 123 361.5t322 136.5q156 0 251 -84q-74 197 -217 311q-53 -39 -119.5 -89t-93.5 -69q-53 35 -53 76q0 27 33 49q59 39 141 95q-117 66 -274 92q-2 10 -2 30q0 45 49 45.5t146.5 -28.5t176.5 -72q147 104 224 168q45 -41 45 -80q0 -31 -35 -51 q-20 -14 -69.5 -48t-71.5 -50q174 -139 244.5 -328.5t70.5 -464.5q0 -225 -123 -360t-323 -135q-199 0 -322 135t-123 360zM236 504q0 -176 79.5 -293t221.5 -117q143 0 223 96.5t80 255.5q0 176 -82 294t-221 118q-143 0 -222 -97t-79 -257z" />
<glyph unicode="&#xf1;" horiz-adv-x="1062" d="M123 942q41 16 74 16q94 0 94 -102q61 47 157.5 82t188.5 35q121 0 197.5 -68.5t76.5 -220.5q0 -4 -3 -147.5t-3 -217.5q0 -188 35 -309q-41 -16 -80 -16q-53 0 -76.5 23.5t-23.5 80.5q0 74 6 282t6 249q0 115 -56.5 172t-144.5 57q-139 0 -274 -113q4 -279 4 -405 q0 -199 12 -338q-33 -6 -69 -6q-92 0 -92 78q0 8 5 150.5t5 283.5q0 336 -39 434zM244 1135q0 55 64.5 109t135.5 54q37 0 117 -46t115 -46q47 0 121 86q33 -12 32 -43q0 -57 -63.5 -110.5t-134.5 -53.5q-43 0 -120 46.5t-114 46.5t-121 -86q-32 14 -32 43z" />
<glyph unicode="&#xf2;" horiz-adv-x="1075" d="M92 475q0 225 123 361.5t322 136.5q201 0 323.5 -136.5t122.5 -361.5t-123 -360t-323 -135q-199 0 -322 135t-123 360zM229 1343q0 53 72 95q76 -84 160 -148.5t120.5 -94.5t36.5 -60.5t-32 -59.5q-57 43 -156.5 98.5t-150 92t-50.5 77.5zM236 504q0 -176 79.5 -293 t221.5 -117q143 0 223 96.5t80 255.5q0 176 -82 294t-221 118q-143 0 -222 -97t-79 -257z" />
<glyph unicode="&#xf3;" horiz-adv-x="1075" d="M92 475q0 225 123 361.5t322 136.5q201 0 323.5 -136.5t122.5 -361.5t-123 -360t-323 -135q-199 0 -322 135t-123 360zM236 504q0 -176 79.5 -293t221.5 -117q143 0 223 96.5t80 255.5q0 176 -82 294t-221 118q-143 0 -222 -97t-79 -257zM455 1133q0 35 32.5 60.5 t117.5 89t169 155.5q72 -41 72 -95q0 -41 -51 -75q-45 -33 -163 -101.5t-145 -93.5q-32 29 -32 60z" />
<glyph unicode="&#xf4;" horiz-adv-x="1075" d="M92 475q0 225 123 361.5t322 136.5q201 0 323.5 -136.5t122.5 -361.5t-123 -360t-323 -135q-199 0 -322 135t-123 360zM236 504q0 -176 79.5 -293t221.5 -117q143 0 223 96.5t80 255.5q0 176 -82 294t-221 118q-143 0 -222 -97t-79 -257zM250 1116q131 158 289 275 q96 -61 181 -138t85 -133q0 -37 -47 -57q-39 49 -94.5 95t-92.5 67l-36 20q-12 -10 -38 -31.5t-41.5 -34t-38 -29.5t-37.5 -28.5t-30.5 -21.5t-28 -15.5t-20.5 -5.5q-24 0 -51 37z" />
<glyph unicode="&#xf5;" horiz-adv-x="1075" d="M92 475q0 225 123 361.5t322 136.5q201 0 323.5 -136.5t122.5 -361.5t-123 -360t-323 -135q-199 0 -322 135t-123 360zM236 504q0 -176 79.5 -293t221.5 -117q143 0 223 96.5t80 255.5q0 176 -82 294t-221 118q-143 0 -222 -97t-79 -257zM244 1135q0 55 64.5 109 t135.5 54q37 0 117 -46t115 -46q47 0 121 86q33 -12 32 -43q0 -57 -63.5 -110.5t-134.5 -53.5q-43 0 -120 46.5t-114 46.5t-121 -86q-32 14 -32 43z" />
<glyph unicode="&#xf6;" horiz-adv-x="1075" d="M92 475q0 225 123 361.5t322 136.5q201 0 323.5 -136.5t122.5 -361.5t-123 -360t-323 -135q-199 0 -322 135t-123 360zM236 504q0 -176 79.5 -293t221.5 -117q143 0 223 96.5t80 255.5q0 176 -82 294t-221 118q-143 0 -222 -97t-79 -257zM250 1178q0 45 32.5 76.5 t75.5 31.5q41 0 72 -31.5t31 -76.5q0 -47 -33 -79t-74 -32q-43 0 -73.5 31t-30.5 80zM614 1178q0 45 33 76.5t76 31.5q41 0 71.5 -31.5t30.5 -76.5q0 -47 -32.5 -79t-73.5 -32q-43 0 -74 31t-31 80z" />
<glyph unicode="&#xf7;" d="M141 504q0 33 18.5 59.5t55.5 26.5q6 0 129 -7.5t213 -7.5q266 0 391 15q6 -18 6 -62q0 -37 -20.5 -61.5t-53 -24.5t-146 8.5t-173.5 8.5q-233 0 -414 -17q-6 31 -6 62zM442 164q0 49 33 83t80 34t79 -34t32 -83q0 -51 -32 -84t-79 -33t-80 33t-33 84zM442 868 q0 49 33 83t80 34t79 -33.5t32 -83.5q0 -51 -32 -83.5t-79 -32.5t-80 32.5t-33 83.5z" />
<glyph unicode="&#xf8;" horiz-adv-x="1075" d="M92 473q0 227 122 363.5t323 136.5q104 0 192 -41q41 80 105 211q35 -2 64.5 -18.5t29.5 -45.5q0 -12 -13 -41l-92 -166q160 -137 160 -397q0 -225 -123 -360t-323 -135q-102 0 -187 36q-68 -133 -94 -188q-94 12 -94 66q0 14 12 38l80 144q-162 133 -162 397zM236 498 q0 -190 88 -299l346 622q-63 37 -140 37q-139 0 -216.5 -99t-77.5 -261zM408 127q57 -33 135 -33q139 0 218 97.5t79 257.5q0 178 -88 299z" />
<glyph unicode="&#xf9;" horiz-adv-x="1060" d="M123 942q41 16 80 16q53 0 76.5 -23.5t23.5 -80.5q0 -74 -6 -281.5t-6 -248.5q0 -111 54 -170.5t140 -59.5q147 0 277 113q-2 88 -2 268q0 299 -15 477q33 6 70 6q92 0 92 -77q0 -8 -4 -166t-4 -299q0 -260 39 -406q-41 -16 -76 -16q-94 0 -94 102q-147 -117 -326 -116 q-291 0 -290 288q0 6 3 149.5t3 215.5q0 186 -35 309zM227 1343q0 53 72 95q76 -84 160 -148.5t120.5 -94.5t36.5 -60.5t-32 -59.5q-57 43 -156.5 98.5t-150 92t-50.5 77.5z" />
<glyph unicode="&#xfa;" horiz-adv-x="1060" d="M123 942q41 16 80 16q53 0 76.5 -23.5t23.5 -80.5q0 -74 -6 -281.5t-6 -248.5q0 -111 54 -170.5t140 -59.5q147 0 277 113q-2 88 -2 268q0 299 -15 477q33 6 70 6q92 0 92 -77q0 -8 -4 -166t-4 -299q0 -260 39 -406q-41 -16 -76 -16q-94 0 -94 102q-147 -117 -326 -116 q-291 0 -290 288q0 6 3 149.5t3 215.5q0 186 -35 309zM453 1133q0 35 32.5 60.5t117.5 89t169 155.5q72 -41 72 -95q0 -41 -51 -75q-45 -33 -163 -101.5t-145 -93.5q-32 29 -32 60z" />
<glyph unicode="&#xfb;" horiz-adv-x="1060" d="M123 942q41 16 80 16q53 0 76.5 -23.5t23.5 -80.5q0 -74 -6 -281.5t-6 -248.5q0 -111 54 -170.5t140 -59.5q147 0 277 113q-2 88 -2 268q0 299 -15 477q33 6 70 6q92 0 92 -77q0 -8 -4 -166t-4 -299q0 -260 39 -406q-41 -16 -76 -16q-94 0 -94 102q-147 -117 -326 -116 q-291 0 -290 288q0 6 3 149.5t3 215.5q0 186 -35 309zM248 1116q131 158 289 275q96 -61 181 -138t85 -133q0 -37 -47 -57q-39 49 -94.5 95t-92.5 67l-37 20q-12 -10 -37.5 -31.5t-41 -34t-38 -29.5t-38 -28.5t-30.5 -21.5t-27.5 -15.5t-20.5 -5.5q-24 0 -51 37z" />
<glyph unicode="&#xfc;" horiz-adv-x="1060" d="M123 942q41 16 80 16q53 0 76.5 -23.5t23.5 -80.5q0 -74 -6 -281.5t-6 -248.5q0 -111 54 -170.5t140 -59.5q147 0 277 113q-2 88 -2 268q0 299 -15 477q33 6 70 6q92 0 92 -77q0 -8 -4 -166t-4 -299q0 -260 39 -406q-41 -16 -76 -16q-94 0 -94 102q-147 -117 -326 -116 q-291 0 -290 288q0 6 3 149.5t3 215.5q0 186 -35 309zM242 1178q0 45 32.5 76.5t75.5 31.5q41 0 72 -31.5t31 -76.5q0 -47 -33 -79t-74 -32q-43 0 -73.5 31t-30.5 80zM606 1178q0 45 33 76.5t76 31.5q41 0 71.5 -31.5t30.5 -76.5q0 -47 -32.5 -79t-73.5 -32q-43 0 -74 31 t-31 80z" />
<glyph unicode="&#xfd;" horiz-adv-x="903" d="M0 897q72 66 117 66q47 0 80 -66q49 -98 145 -343t143 -407q88 190 155 409.5t67 346.5q0 10 -5 60q31 10 68 10q72 0 72 -82q0 -96 -73 -326.5t-173 -443.5q-180 -383 -340 -582q-39 -53 -80 -53q-57 0 -113 82q61 39 164 158.5t179 240.5q-72 238 -195 542t-211 388z M369 1133q0 35 32.5 60.5t117.5 89t169 155.5q72 -41 72 -95q0 -41 -51 -75q-45 -33 -163 -101.5t-145 -93.5q-32 29 -32 60z" />
<glyph unicode="&#xfe;" horiz-adv-x="1034" d="M123 1516q33 6 72 6q94 0 94 -78q0 -10 -3 -91t-7.5 -217.5t-4.5 -273.5q154 111 316 111q154 0 253 -109.5t99 -333.5q0 -147 -46 -269t-148.5 -201.5t-245.5 -79.5q-121 0 -230 69q0 -10 1 -107.5t2 -132t5.5 -107.5t12.5 -120t20 -84q-37 -16 -82 -16 q-59 0 -79.5 26.5t-20.5 90.5q0 188 3 473.5t3 396.5v500q0 363 -14 547zM274 748q0 -176 1 -354.5t1 -237.5q94 -61 246 -62q92 0 156.5 62.5t91.5 151.5t27 192q0 184 -71 271t-181 87q-136 1 -271 -110z" />
<glyph unicode="&#xff;" horiz-adv-x="903" d="M0 897q72 66 117 66q47 0 80 -66q49 -98 145 -343t143 -407q88 190 155 409.5t67 346.5q0 10 -5 60q31 10 68 10q72 0 72 -82q0 -96 -73 -326.5t-173 -443.5q-180 -383 -340 -582q-39 -53 -80 -53q-57 0 -113 82q61 39 164 158.5t179 240.5q-72 238 -195 542t-211 388z M137 1178q0 45 33 76.5t76 31.5q41 0 71.5 -31.5t30.5 -76.5q0 -47 -32.5 -79t-73.5 -32q-43 0 -74 31t-31 80zM502 1178q0 45 32.5 76.5t75.5 31.5q41 0 72 -31.5t31 -76.5q0 -47 -33 -79t-74 -32q-43 0 -73.5 31t-30.5 80z" />
<glyph unicode="&#x152;" horiz-adv-x="1802" d="M100 678q0 322 170 511t457 189q111 0 215 -32q219 18 447 18q295 0 331 -31q18 -16 19 -53q0 -49 -17 -90q-117 43 -381 43q-109 0 -225 -6q8 -90 8 -434h162q172 0 246 8q8 -16 8 -53q0 -47 -21.5 -63.5t-68.5 -18.5q-53 -2 -145 -2h-181q0 -446 15 -537q90 -4 145 -4 q344 0 440 47q16 -41 17 -90q0 -37 -19 -53q-37 -31 -331 -31h-86q-250 0 -340 22q-113 -39 -238 -38q-287 0 -457 190.5t-170 507.5zM268 741q0 -121 25.5 -229.5t77 -202.5t142.5 -149.5t212 -55.5q139 0 242 62q0 37 2 136t2 157v409q0 154 -10 318q-100 68 -232 67 q-211 0 -336 -144.5t-125 -367.5z" />
<glyph unicode="&#x153;" horiz-adv-x="1703" d="M92 475q0 225 123 361.5t322 136.5q252 0 372 -205q63 100 166 152.5t215 52.5q143 0 232.5 -81t89.5 -190q0 -80 -29 -133t-75 -83.5t-133 -47t-171 -20.5t-221 -4q16 -141 103.5 -230.5t218.5 -89.5q141 0 217 99q63 -37 63 -89q0 -55 -86 -89.5t-196 -34.5 q-268 0 -394 200q-123 -201 -372 -200q-199 0 -322 135t-123 360zM236 504q0 -176 79.5 -293t221.5 -117q143 0 223 96.5t80 255.5q0 176 -82 294t-221 118q-143 0 -222 -97t-79 -257zM983 516q90 0 147.5 2t129 12.5t112.5 29t69.5 53t28.5 85.5q0 66 -54 114t-134 48 q-121 0 -208 -84t-91 -260z" />
<glyph unicode="&#x178;" horiz-adv-x="1026" d="M-20 1268q6 8 25.5 30.5t26.5 28.5l21 19q14 12 26.5 16t29.5 4q51 0 98 -70q123 -178 328 -557q98 129 209.5 345t115.5 292q156 -10 156 -92q0 -51 -155.5 -289.5t-272.5 -378.5v-174q0 -299 39 -432q-37 -16 -96.5 -16t-80 26.5t-20.5 90.5q2 188 4 364v127 q-296 560 -454 666zM223 1569q0 45 33 76.5t76 31.5q41 0 71.5 -31.5t30.5 -76.5q0 -47 -32.5 -79t-73.5 -32q-43 0 -74 31t-31 80zM588 1569q0 45 32.5 76.5t75.5 31.5q41 0 72 -31.5t31 -76.5q0 -47 -33 -79t-74 -32q-43 0 -73.5 31t-30.5 80z" />
<glyph unicode="&#x2c6;" horiz-adv-x="567" d="M-4 1116q131 158 289 275q96 -61 181 -138t85 -133q0 -37 -47 -57q-39 49 -94.5 95t-92.5 67l-36 20q-12 -10 -38 -31.5t-41.5 -34t-38 -29.5t-37.5 -28.5t-30.5 -21.5t-28 -15.5t-20.5 -5.5q-24 0 -51 37z" />
<glyph unicode="&#x2dc;" horiz-adv-x="585" d="M0 1135q0 55 64.5 109t136.5 54q37 0 116.5 -46t114.5 -46q47 0 121 86q33 -12 33 -43q0 -57 -63.5 -110.5t-135.5 -53.5q-43 0 -120 46.5t-113.5 46.5t-120.5 -86q-33 14 -33 43z" />
<glyph unicode="&#x2000;" horiz-adv-x="919" />
<glyph unicode="&#x2001;" horiz-adv-x="1841" />
<glyph unicode="&#x2002;" horiz-adv-x="919" />
<glyph unicode="&#x2003;" horiz-adv-x="1841" />
<glyph unicode="&#x2004;" horiz-adv-x="612" />
<glyph unicode="&#x2005;" horiz-adv-x="458" />
<glyph unicode="&#x2006;" horiz-adv-x="305" />
<glyph unicode="&#x2007;" horiz-adv-x="305" />
<glyph unicode="&#x2008;" horiz-adv-x="229" />
<glyph unicode="&#x2009;" horiz-adv-x="366" />
<glyph unicode="&#x200a;" horiz-adv-x="100" />
<glyph unicode="&#x2010;" horiz-adv-x="471" d="M51 522q0 33 17.5 56.5t56.5 23.5q2 0 62.5 -4t107.5 -4q96 0 160 14q6 -18 6 -61q0 -35 -20.5 -57.5t-53.5 -22.5q-12 0 -64.5 5t-93.5 5q-96 0 -172 -16q-6 30 -6 61z" />
<glyph unicode="&#x2011;" horiz-adv-x="471" d="M51 522q0 33 17.5 56.5t56.5 23.5q2 0 62.5 -4t107.5 -4q96 0 160 14q6 -18 6 -61q0 -35 -20.5 -57.5t-53.5 -22.5q-12 0 -64.5 5t-93.5 5q-96 0 -172 -16q-6 30 -6 61z" />
<glyph unicode="&#x2012;" horiz-adv-x="471" d="M51 522q0 33 17.5 56.5t56.5 23.5q2 0 62.5 -4t107.5 -4q96 0 160 14q6 -18 6 -61q0 -35 -20.5 -57.5t-53.5 -22.5q-12 0 -64.5 5t-93.5 5q-96 0 -172 -16q-6 30 -6 61z" />
<glyph unicode="&#x2013;" horiz-adv-x="1218" d="M61 522q0 33 18.5 59.5t55.5 26.5q6 0 129 -7t213 -7h291q260 0 383 14q6 -18 6 -61q0 -37 -20.5 -61.5t-53.5 -24.5q-31 0 -141.5 8t-167.5 8h-293q-233 0 -413 -16q-7 30 -7 61z" />
<glyph unicode="&#x2014;" horiz-adv-x="1546" d="M61 522q0 33 17.5 56.5t56.5 23.5q4 0 81 -4t138 -4h912q129 0 213 14q6 -18 6 -61q0 -35 -20.5 -57.5t-53.5 -22.5q-16 0 -82.5 5t-122.5 5h-911q-127 0 -227 -16q-7 30 -7 61z" />
<glyph unicode="&#x2018;" horiz-adv-x="362" d="M35 1169q0 129 70.5 238t166.5 109q53 0 54 -62q0 -16 -2 -24h-11q-66 0 -108.5 -49.5t-42.5 -112.5q0 -100 100 -121q20 -33 21 -68q0 -43 -35 -72.5t-84 -29.5q-53 0 -91 47t-38 145z" />
<glyph unicode="&#x2019;" horiz-adv-x="499" d="M86 1038q0 16 2 25h10q66 0 109 49t43 113q0 100 -100 121q-20 33 -21 67q0 43 35 73t84 30q53 0 91 -47.5t38 -145.5q0 -129 -70.5 -237.5t-167.5 -108.5q-53 0 -53 61z" />
<glyph unicode="&#x201a;" horiz-adv-x="446" d="M53 -231q0 16 2 24h11q66 0 108.5 49t42.5 113q0 100 -100 121q-20 33 -21 67q0 43 35 73t84 30q53 0 91 -47t38 -146q0 -129 -70.5 -237.5t-167.5 -108.5q-53 1 -53 62z" />
<glyph unicode="&#x201c;" horiz-adv-x="837" d="M61 1165q0 129 71 237.5t167 108.5q53 0 53 -61q0 -16 -2 -25h-10q-66 0 -109 -49t-43 -112q0 -100 101 -121q20 -33 20 -68q0 -43 -34.5 -72.5t-84.5 -29.5q-53 0 -91 47t-38 145zM465 1165q0 129 70.5 237.5t166.5 108.5q53 0 54 -61q0 -16 -2 -25h-11 q-66 0 -108.5 -49t-42.5 -112q0 -100 100 -121q20 -33 21 -68q0 -43 -35 -72.5t-84 -29.5q-53 0 -91 47t-38 145z" />
<glyph unicode="&#x201d;" horiz-adv-x="931" d="M102 1038q0 16 2 25h11q66 0 108.5 49t42.5 113q0 100 -100 121q-20 33 -21 67q0 43 35 73t84 30q53 0 91 -47.5t38 -145.5q0 -129 -70.5 -237.5t-166.5 -108.5q-54 0 -54 61zM498 1038q0 16 2 25h10q66 0 109 49t43 113q0 100 -101 121q-20 33 -20 67q0 43 34.5 73 t83.5 30q53 0 91 -47.5t38 -145.5q0 -129 -70.5 -237.5t-166.5 -108.5q-53 0 -53 61z" />
<glyph unicode="&#x201e;" horiz-adv-x="841" d="M53 -231q0 16 2 24h11q66 0 108.5 49t42.5 113q0 100 -100 121q-20 33 -21 67q0 43 35 73t84 30q53 0 91 -47t38 -146q0 -129 -70.5 -237.5t-167.5 -108.5q-53 1 -53 62zM449 -231q0 16 2 24h10q66 0 108.5 49t42.5 113q0 100 -100 121q-20 33 -20 67q0 43 34.5 73 t83.5 30q53 0 91 -47t38 -146q0 -129 -70.5 -237.5t-166.5 -108.5q-53 1 -53 62z" />
<glyph unicode="&#x2022;" horiz-adv-x="548" d="M51 549q0 98 66.5 166.5t159 68.5t157 -68.5t64.5 -166.5q0 -100 -64.5 -166t-157.5 -66q-94 0 -159.5 66t-65.5 166z" />
<glyph unicode="&#x2026;" horiz-adv-x="1566" d="M86 108.5q0 55.5 37 93.5t88 38t87 -38t36 -93.5t-36 -92t-87 -36.5t-88 36.5t-37 92zM662 108.5q0 55.5 36.5 93.5t88 38t87 -38t35.5 -93.5t-35.5 -92t-87 -36.5t-88 36.5t-36.5 92zM1237 108.5q0 55.5 37 93.5t88 38t87 -38t36 -93.5t-36 -92t-87 -36.5t-88 36.5 t-37 92z" />
<glyph unicode="&#x202f;" horiz-adv-x="366" />
<glyph unicode="&#x2039;" horiz-adv-x="583" d="M82 481q203 279 338 391q41 -31 41 -57q0 -29 -73 -137.5t-144 -196.5q72 -88 144.5 -196.5t72.5 -137.5q0 -27 -41 -57q-135 112 -338 391z" />
<glyph unicode="&#x203a;" horiz-adv-x="583" d="M82 147q0 29 72.5 137.5t144.5 196.5q-72 88 -144.5 196.5t-72.5 137.5q0 27 41 57q135 -113 338 -391q-203 -279 -338 -391q-41 30 -41 57z" />
<glyph unicode="&#x205f;" horiz-adv-x="458" />
<glyph unicode="&#x20ac;" d="M33 543q0 55 55 55h96q-2 27 -2 86q0 39 2 59q-43 -2 -145 -10q-6 20 -6 35q0 55 55 55h102q18 145 78 255t143 173.5t177 95t196 31.5q270 0 271 -96q0 -66 -45 -92q-102 74 -238 74q-141 0 -270 -114t-164 -327h260q213 0 332 11l4 -31q0 -59 -55 -60h-549 q-2 -20 -2 -63q0 -29 4 -82h266q213 0 332 10l4 -30q0 -59 -55 -60h-537q39 -205 165 -312.5t265 -107.5q135 0 238 74q45 -27 45 -92q0 -98 -271 -98q-100 0 -192 29.5t-175 90t-142.5 168t-79.5 248.5q-45 -2 -156 -10q-6 21 -6 35z" />
<glyph unicode="&#x2122;" horiz-adv-x="1763" d="M205 1278q0 33 15.5 44t47.5 13h256q172 0 230 6q8 -33 8 -45q0 -59 -60 -59h-159v-393q0 -152 26 -236q-45 -12 -73 -12q-43 0 -57.5 18.5t-14.5 61.5v561q-137 0 -211 -6q-8 24 -8 47zM846 1331q49 12 80 12q57 0 94 -63q104 -184 213 -492q84 254 215 492q35 63 96 63 q37 0 78 -16q-18 -78 -18 -197v-307q0 -129 24 -215q-37 -12 -72 -12q-43 0 -57 18.5t-14 61.5q0 57 1 189t1 276q-98 -219 -197 -537q-16 -6 -45 -6q-53 0 -69 39q-29 70 -72 181.5t-75 190t-58 128.5v-314q0 -129 24 -215q-37 -12 -61 -12q-43 0 -57.5 18.5t-14.5 61.5 q0 14 1 64.5t1 152.5v246q0 100 -18 192z" />
<glyph unicode="&#xe000;" horiz-adv-x="975" d="M0 975h975v-975h-975v975z" />
<glyph unicode="&#xfb01;" horiz-adv-x="1017" d="M10 883q0 57 76 65q45 4 90 4v37q0 256 103.5 366.5t255.5 110.5q109 0 209 -37.5t100 -117.5q0 -35 -30 -58.5t-81 -23.5q-41 68 -87 98.5t-124 30.5q-102 0 -155.5 -65.5t-53.5 -243.5v-97h404q33 6 69 6q96 0 97 -77q0 -12 -4.5 -84t-8.5 -178.5t-4 -202.5 q0 -276 39 -406q-37 -16 -78 -16q-59 0 -79.5 26.5t-20.5 90.5q0 33 2 161.5t2 200.5q0 221 -8 367h-410v-426q0 -272 39 -404q-37 -16 -78 -16q-57 0 -79.5 24.5t-22.5 81.5q0 25 2 280t2 458q-68 0 -160 -11q-6 21 -6 56z" />
<glyph unicode="&#xfb02;" horiz-adv-x="1087" d="M10 883q0 57 76 65q45 4 90 4q0 94 7 165t27.5 139.5t56.5 111.5t98.5 69.5t146.5 26.5q74 0 127 -22.5t53 -59.5q0 -41 -41 -96q-70 63 -178 64q-96 0 -129 -72t-33 -229v-97q199 0 279 9q8 -16 8 -48q0 -41 -21.5 -55t-68.5 -16q-66 -2 -197 -2v-426q0 -272 39 -404 q-37 -16 -78 -16q-57 0 -78.5 24.5t-21.5 81.5q0 25 2 280t2 458q-68 0 -160 -11q-6 21 -6 56zM776 1516q33 6 72 6q94 0 94 -78q0 -8 -4 -109.5t-7 -268.5t-3 -333v-319q0 -272 37 -404q-37 -16 -78 -16q-55 0 -77 24.5t-22 81.5q0 43 2.5 260.5t2.5 325.5v238 q-1 483 -17 592z" />
<glyph unicode="&#xfb03;" horiz-adv-x="1648" d="M10 883q0 57 76 65q45 4 90 4q0 94 7 165t27.5 139.5t56.5 111.5t98.5 69.5t146.5 26.5q74 0 127 -22.5t53 -59.5q0 -41 -41 -96q-70 63 -178 64q-96 0 -129 -72t-33 -229v-97h496v37q0 256 103.5 366.5t254.5 110.5q109 0 209.5 -37.5t100.5 -117.5q0 -35 -30 -58.5 t-81 -23.5q-41 68 -87 98.5t-124 30.5q-102 0 -155.5 -65.5t-53.5 -243.5v-97h404q33 6 69 6q96 0 96 -77q0 -12 -4 -84t-8 -178.5t-4 -202.5q0 -276 39 -406q-37 -16 -78 -16q-59 0 -79.5 26.5t-20.5 90.5q0 33 2 161.5t2 200.5q0 221 -8 367h-410v-426q0 -272 39 -404 q-37 -16 -78 -16q-57 0 -79.5 24.5t-22.5 81.5q0 25 2 280t2 458h-496v-424q0 -272 39 -404q-37 -16 -78 -16q-57 0 -78.5 24.5t-21.5 81.5q0 25 2 280t2 458q-68 0 -160 -11q-6 21 -6 56z" />
<glyph unicode="&#xfb04;" horiz-adv-x="1718" d="M10 883q0 57 76 65q45 4 90 4q0 94 7 165t27.5 139.5t56.5 111.5t98.5 69.5t146.5 26.5q74 0 127 -22.5t53 -59.5q0 -41 -41 -96q-70 63 -178 64q-96 0 -129 -72t-33 -229v-97h496q0 94 7 165t27.5 139.5t56.5 111.5t98.5 69.5t146.5 26.5q74 0 127 -22.5t53 -59.5 q0 -41 -41 -96q-70 63 -178 64q-96 0 -129 -72t-33 -229v-97q199 0 279 9q8 -16 8 -48q0 -41 -21.5 -55t-68.5 -16q-66 -2 -197 -2v-426q0 -272 39 -404q-37 -16 -78 -16q-57 0 -78.5 24.5t-21.5 81.5q0 25 2 280t2 458h-496v-424q0 -272 39 -404q-37 -16 -78 -16 q-57 0 -78.5 24.5t-21.5 81.5q0 25 2 280t2 458q-68 0 -160 -11q-6 21 -6 56zM1407 1516q33 6 72 6q94 0 94 -78q0 -8 -4 -109.5t-7 -268.5t-3 -333v-319q0 -272 36 -404q-37 -16 -77 -16q-55 0 -77 24.5t-22 81.5q0 43 2 260.5t2 325.5v238q0 483 -16 592z" />
</font>
</defs>
</svg>
