<?xml version="1.0" standalone="no"?>
<!DOCTYPE svg PUBLIC "-//W3C//DTD SVG 1.1//EN" "http://www.w3.org/Graphics/SVG/1.1/DTD/svg11.dtd" >
<svg xmlns="http://www.w3.org/2000/svg">
<metadata>
This is a custom SVG webfont generated by Font Squirrel.
Copyright   : BASSEL FONT  Pedro Pan NEO2  01
</metadata>
<defs>
<font id="BASSELRegular" horiz-adv-x="1566" >
<font-face units-per-em="2048" ascent="1638" descent="-410" />
<missing-glyph horiz-adv-x="624" />
<glyph unicode=" "  horiz-adv-x="624" />
<glyph unicode="&#x09;" horiz-adv-x="624" />
<glyph unicode="&#xa0;" horiz-adv-x="624" />
<glyph unicode="!" horiz-adv-x="532" d="M102 -307h363v1843h-363v-1843zM102 -563l2 55h367v-108h-367z" />
<glyph unicode="&#x22;" horiz-adv-x="915" d="M104 1128h160v631h-160v-631zM664 1130h159v631h-159v-631z" />
<glyph unicode="#" horiz-adv-x="1918" d="M102 -106h201v-201h363v201h637v-201h362v201h201v368h-201v707h201v366h-201v201h-362v-201h-637v201h-363v-201h-201v-366h201v-707h-201v-368zM666 262v707h637v-707h-637z" />
<glyph unicode="%" horiz-adv-x="1523" d="M102 1343q0 -82 56.5 -138t138.5 -56q80 0 136 57.5t56 136.5q0 80 -56 136.5t-136 56.5t-137.5 -56.5t-57.5 -136.5zM168 -307h338l956 1843h-338zM1143 -111q0 -82 56 -138t138 -56t137.5 56t55.5 138t-55.5 137.5t-137.5 55.5q-78 0 -136 -56.5t-58 -136.5z" />
<glyph unicode="&#x26;" horiz-adv-x="1693" d="M102 1012l2 -797q0 -262 191 -399q168 -123 440 -123h142q272 0 442 121q193 139 190 401q0 29 -4 87t-4 89q0 205 121 236l55 401h-16q-135 0 -258 -72q-37 -23 -219 -157v221q-20 229 -167 372.5t-374 143.5q-223 0 -382 -150.5t-159 -373.5zM395 395l264 -28 q119 -12 263 75q35 20 223 170v-239q-35 -276 -338 -303q-193 0 -270 47q-51 33 -76 116q-33 115 -66 162zM465 797v143q0 74 45 120t119 46q150 0 170 -164q-14 -178 -181 -178q-40 0 -153 33z" />
<glyph unicode="'" horiz-adv-x="356" d="M104 1128h160v631h-160v-631z" />
<glyph unicode="(" horiz-adv-x="940" d="M102 326q0 -270 123 -441q137 -193 400 -192h258v360h-60q-147 0 -245.5 95.5t-98.5 242.5v447q0 147 98.5 242.5t245.5 95.5h60v360h-258q-223 0 -359 -143q-164 -172 -164 -490v-577z" />
<glyph unicode=")" horiz-adv-x="940" d="M104 55v-360h256q260 0 400 192q125 170 125 441v575q0 272 -123 443q-139 193 -402 192h-256v-362h60q147 0 245.5 -95.5t98.5 -240.5v-449q0 -145 -98.5 -240.5t-245.5 -95.5h-60z" />
<glyph unicode="*" horiz-adv-x="1957" d="M102 434h484l-340 -344l254 -254l344 340v-483h360v483l344 -340l254 254l-340 344h484v361h-484l340 344l-254 254l-344 -340v483h-360v-483l-344 340l-254 -254l340 -344h-484v-361z" />
<glyph unicode="+" horiz-adv-x="1898" d="M102 434h742v-741h360v741h742v361h-742v741h-360v-741h-742v-361z" />
<glyph unicode="," horiz-adv-x="716" d="M145 -299h353l145 367h-352z" />
<glyph unicode="-" horiz-adv-x="1622" d="M102 403h1444v361h-1444v-361z" />
<glyph unicode="." horiz-adv-x="555" d="M98 66v-373h373v373h-373z" />
<glyph unicode="/" horiz-adv-x="1431" d="M168 -307h338l956 1843h-338z" />
<glyph unicode="0" d="M80 215q0 -262 192 -399q170 -123 441 -123h141q272 0 440 123q190 137 191 399v799q0 262 -193 401q-168 121 -440 121h-141q-266 0 -439 -125q-193 -141 -192 -397v-799zM440 401l2 414q0 160 90.5 252t247.5 92h15q154 0 241.5 -88t87.5 -244l-2 -413 q-2 -322 -338 -344q-158 10 -247 90q-97 85 -97 241z" />
<glyph unicode="1" d="M545 1147q156 -57 155 -191v-1263h322v1270q0 221 -127 383q-133 172 -350 188v-387z" />
<glyph unicode="2" d="M74 256q0 -231 158.5 -397t388.5 -166h870v381h-807q-74 0 -120 47t-46 121q0 172 240 172q23 0 67.5 -2t67.5 -2h51q231 0 389 165.5t158 397.5q0 231 -157.5 397t-389.5 166h-870v-381h805q76 0 122 -46t46 -122q0 -109 -80 -145q-49 -23 -168 -23h-178 q-229 0 -388 -166t-159 -397z" />
<glyph unicode="3" d="M80 66v-373h868q227 0 382 161.5t155 391.5q0 109 -35 196q-27 68 -98 172q72 104 98 172q35 88 35 197q0 229 -154.5 391t-382.5 162h-868v-401h805q76 0 121 -45.5t45 -120.5q0 -76 -45 -121t-121 -45h-805v-406h805q76 0 121 -45t45 -121t-45 -120.5t-121 -44.5h-805z " />
<glyph unicode="4" d="M76 971q0 -231 157.5 -396t387.5 -165h178l84 -4q74 -4 119 -49.5t45 -116.5v-547h444v1843h-444v-551q0 -119 -109 -154q-84 -27 -176 -26q-244 0 -244 184v547h-442v-565z" />
<glyph unicode="5" d="M74 74v-381h870q231 0 389 166t158 397t-157.5 397t-389.5 166h-176l-84 2q-74 2 -120 47t-46 119v166l973 2v381h-1417v-563q0 -231 158.5 -397t388.5 -166h51q20 0 63 2t64 2q248 0 248 -172q0 -76 -46.5 -122t-121.5 -46h-805z" />
<glyph unicode="6" d="M76 254q0 -229 146.5 -393t373.5 -164h348q229 0 387 165t158 396t-157.5 396t-387.5 165h-426v170q0 74 46 120t120 46h805v381h-868q-229 0 -387 -165t-158 -396v-721zM518 240q0 72 44 115.5t118 50.5l86 6h113q76 0 122 -46.5t46 -121.5q0 -76 -46.5 -121t-121.5 -45 h-240q-121 51 -121 162z" />
<glyph unicode="7" d="M76 1133h807q74 0 126 -47.5t40 -118.5l-207 -1274h438l207 1288q6 39 6 66q0 205 -174 350q-164 139 -373 139h-870v-403z" />
<glyph unicode="8" d="M76 219q0 -217 147.5 -371.5t362.5 -154.5h393q217 0 363.5 154.5t146.5 371.5q0 119 -45 215q-33 70 -123 180q90 111 123 181q45 96 45 215q0 217 -146.5 371.5t-363.5 154.5h-393q-215 0 -362.5 -154.5t-147.5 -371.5q0 -123 45 -215q33 -68 125 -181 q-92 -113 -125 -180q-45 -92 -45 -215zM483 205q0 74 45 119t119 45h271q74 0 118.5 -45t44.5 -119q0 -72 -46 -117t-117 -45h-271q-72 0 -118 45t-46 117zM483 995q0 74 45 119t119 45h271q74 0 118.5 -45t44.5 -119q0 -72 -46 -116.5t-117 -44.5h-271q-72 0 -118 44.5 t-46 116.5z" />
<glyph unicode="9" d="M76 74v-381h868q229 0 387 165t158 396v721q0 229 -154.5 394t-382.5 167l-8 -4h-323q-229 0 -387 -165t-158 -396t157.5 -396t387.5 -165h180l84 -4q74 -4 118 -49.5t44 -116.5q0 -94 -127 -166h-844zM518 985q0 74 46 120t120 46h240q123 -49 123 -162 q0 -72 -44.5 -117t-115.5 -49l-88 -6h-113q-76 0 -122 46t-46 122z" />
<glyph unicode=":" horiz-adv-x="526" d="M98 66v-373h373v373h-373zM98 1163h373v373h-373v-373z" />
<glyph unicode=";" horiz-adv-x="698" d="M154 -315h352l145 366h-352zM326 1169h372v373h-372v-373z" />
<glyph unicode="&#x3c;" horiz-adv-x="978" d="M115 608l477 -921h338l-477 921l477 922h-338z" />
<glyph unicode="=" horiz-adv-x="1445" d="M102 1171h1444v363h-1444v-363zM104 53v-362h1444v362h-1444z" />
<glyph unicode="&#x3e;" horiz-adv-x="1050" d="M168 -307h338l477 921l-477 922h-338l477 -922z" />
<glyph unicode="?" horiz-adv-x="1505" d="M102 254v-561h447v506q0 158 121 196q45 14 254 15h51q231 0 389 164.5t158 398.5q0 233 -158 398t-389 165h-871v-381h805q74 0 121 -47t47 -121q0 -109 -80 -145q-49 -23 -168 -23h-178q-233 0 -391 -164.5t-158 -400.5zM106 -508h461l-2 -55l2 -53h-461v108z" />
<glyph unicode="@" horiz-adv-x="2191" d="M-102 614q0 473 326.5 800t799.5 327t799.5 -327t326.5 -800q0 -287 -161 -585l-1022 2q-188 0 -314 102q-135 109 -135 295v377q0 184 135 295q125 102 314 102h65q193 0 318 -100q133 -109 133 -297v-293h192q8 43 8 102q0 276 -191.5 468t-467.5 192t-467.5 -191.5 t-191.5 -468.5q0 -276 191.5 -467.5t467.5 -191.5q135 0 272 57h709q-264 -281 -426 -379q-238 -145 -555 -145q-473 0 -799.5 326.5t-326.5 799.5zM102 614q0 -385 268.5 -653t653.5 -268q248 0 453 114h-140q-147 -57 -313 -57q-360 0 -612 252t-252 612q0 362 251 613.5 t613 251.5t613 -251t251 -614q0 -145 -78 -274q-139 -39 -264 -39q-197 0 -268 102v402q0 193 -246 192h-65q-125 0 -185 -55q-41 -39 -51 -70q-8 -20 -8 -67v-377q0 -98 76 -149q63 -43 168 -43l897 -3q82 176 82 381q0 387 -267.5 654.5t-654.5 267.5t-654.5 -267.5 t-267.5 -654.5z" />
<glyph unicode="A" horiz-adv-x="1574" d="M102 -307h361v297h682v-297h360v1321q0 262 -192 401q-168 121 -441 121h-139q-268 0 -440 -125q-190 -139 -191 -397v-1321zM463 352l2 465q2 319 338 342q342 -25 342 -342v-465h-682z" />
<glyph unicode="B" horiz-adv-x="2054" d="M102 -307h1358q227 0 383 161.5t156 391.5q0 111 -35 196q-23 57 -98 172q76 115 98 172q35 86 35 197q0 229 -158 391q-109 111 -194 142q-55 20 -187 20h-1358v-1843zM508 94v332h889q74 0 120 -46t46 -120t-46.5 -120t-119.5 -46h-889zM508 831v332h889q74 0 120 -46 t46 -120t-46.5 -120t-119.5 -46h-889z" />
<glyph unicode="C" horiz-adv-x="1460" d="M102 326q0 -270 123 -441q137 -193 400 -192h884v360h-686q-147 0 -245.5 95.5t-98.5 242.5v447q0 147 98.5 242.5t245.5 95.5h686v360h-884q-223 0 -359 -143q-164 -172 -164 -490v-577z" />
<glyph unicode="D" horiz-adv-x="2062" d="M102 -307h1358q229 0 384 161.5t155 391.5v737q0 229 -158 391q-109 111 -194 142q-55 20 -187 20h-1358v-1843zM508 94v1069h733q195 0 266 -108q55 -84 56 -295v-285q0 -383 -322 -383z" />
<glyph unicode="E" horiz-adv-x="1515" d="M102 246q0 -229 155 -391t382 -162h868v373h-805q-74 0 -119.5 46t-45.5 119q0 76 46 121t122 45h802v406h-805q-74 0 -119.5 46t-45.5 120q0 76 46 121t122 45h802v401h-868q-227 0 -382 -162t-155 -391q0 -106 37 -197q27 -66 97 -172q-70 -106 -97 -172 q-37 -90 -37 -196z" />
<glyph unicode="F" horiz-adv-x="1474" d="M102 -307h435l2 704h970v404h-970v166q0 74 46 120t120 46h804v403h-868q-227 0 -383 -163t-156 -392v-1288z" />
<glyph unicode="G" horiz-adv-x="1988" d="M102 326q0 -242 97 -402q113 -184 333 -231h990q213 43 341 183t128 353q0 266 -162 408q-152 135 -422 135h-174v-391h172q74 0 120 -46t46 -120q0 -135 -135 -162h-613q-147 0 -245.5 95.5t-98.5 242.5v447q0 100 53 186q94 152 291 152l1168 -2v362h-1366 q-264 0 -402 -190q-121 -170 -121 -443v-577z" />
<glyph unicode="H" horiz-adv-x="1576" d="M102 -307h363v753h682v-753h362v1843h-362v-694h-682v694h-363v-1843z" />
<glyph unicode="I" horiz-adv-x="532" d="M102 -307h363v1843h-363v-1843z" />
<glyph unicode="J" horiz-adv-x="1572" d="M102 215q0 -262 193 -401q168 -121 440 -121h142q313 0 485 164q143 135 143 358v1321h-360v-1124q0 -317 -340 -342q-342 25 -342 342h-361v-197z" />
<glyph unicode="K" horiz-adv-x="1536" d="M102 -307h336v764h494q113 0 182.5 -65.5t69.5 -176.5v-520h323v526q0 115 -47 213q-33 72 -121 182q88 111 121 183q47 98 47 215v246h-323v-240q0 -113 -70 -178.5t-182 -65.5h-494v760h-336v-1843z" />
<glyph unicode="L" horiz-adv-x="1134" d="M102 266q0 -238 161 -405.5t396 -167.5h527v325h-520q-111 0 -174 68q-70 72 -70 180v1270h-320v-1270z" />
<glyph unicode="M" horiz-adv-x="1966" d="M102 -307h361v1259q0 72 46 118t118 46q74 0 119 -46t45 -120v-1257h391v1259q0 72 46 118t118 46q74 0 118.5 -46t44.5 -120v-1257h387v1321q0 221 -157.5 371.5t-378.5 150.5q-109 0 -193 -35q-59 -25 -168 -98q-104 74 -165 98q-86 35 -193 35q-223 0 -381 -150.5 t-158 -371.5v-1321z" />
<glyph unicode="N" horiz-adv-x="1937" d="M102 -307h361v1259q0 72 46 118t118 46q74 0 119 -46t45 -120l2 -735q0 -221 157.5 -371.5t380.5 -150.5t381 150.5t158 371.5v1321h-361v-1260q0 -72 -46 -117.5t-117 -45.5q-74 0 -119 46t-45 120l-2 735q0 221 -158 371.5t-381 150.5t-381 -150.5t-158 -371.5v-1321z " />
<glyph unicode="O" horiz-adv-x="1572" d="M102 215q0 -262 193 -399q170 -123 440 -123h142q272 0 440 123q190 137 190 399v799q0 262 -192 401q-168 121 -441 121h-141q-266 0 -438 -125q-193 -141 -193 -397v-799zM463 401l2 414q0 160 90 252t248 92h14q154 0 242 -89t88 -243l-2 -413q-2 -322 -338 -344 q-158 10 -248 90q-96 85 -96 241z" />
<glyph unicode="P" horiz-adv-x="1951" d="M102 -307h404v725h964q229 0 386 165t157 394t-156.5 394t-386.5 165h-1368v-1843zM506 825v332h899q76 0 122 -45t46 -121t-46 -121t-122 -45h-899z" />
<glyph unicode="Q" horiz-adv-x="1812" d="M102 215q0 -262 193 -399q170 -123 440 -123h1059v373h-295q0 25 4 74.5t4 74.5v799q0 262 -192 401q-168 121 -441 121h-141q-266 0 -438 -125q-193 -141 -193 -397v-799zM463 401l2 414q0 160 90 252t248 92h26q145 0 231.5 -92t86.5 -240l-2 -413q-2 -322 -338 -344 q-158 10 -248 90q-96 85 -96 241z" />
<glyph unicode="R" horiz-adv-x="2066" d="M102 -307h406v733h889q199 0 198 -389q0 -74 -14 -218q-13 -128 -14 -128v2h432v553q0 111 -35 196q-23 57 -98 172q76 115 98 172q35 86 35 197q0 229 -155.5 391t-383.5 162h-1358v-1843zM508 831v332h889q74 0 120 -46t46 -120t-46.5 -120t-119.5 -46h-889z" />
<glyph unicode="S" horiz-adv-x="1540" d="M102 74v-381h871q231 0 389 166t158 397t-158 397t-389 166h-178l-82 2q-74 2 -120 47t-46 119q0 76 45 122t121 46h807v381h-871q-231 0 -389 -166t-158 -397t158 -397t389 -166h49q20 0 63.5 2t65.5 2q248 0 248 -172q0 -76 -46 -122t-122 -46h-805z" />
<glyph unicode="T" horiz-adv-x="1490" d="M102 1116h508v-1423h387v1423h504v420h-1399v-420z" />
<glyph unicode="U" horiz-adv-x="1572" d="M102 215q0 -262 193 -401q168 -121 440 -121h142q313 0 485 164q143 135 143 358v1321h-360v-1124q0 -317 -340 -342q-342 25 -342 342v1124h-361v-1321z" />
<glyph unicode="V" horiz-adv-x="1447" d="M102 215q0 -221 158 -371.5t381 -150.5q440 0 539 532l243 1311h-358l-246 -1272q-4 -70 -49 -110.5t-115 -40.5q-74 0 -120 46t-46 120v1257h-387v-1321z" />
<glyph unicode="W" horiz-adv-x="1964" d="M102 215q0 -221 158 -371.5t381 -150.5q106 0 193 35q61 25 165 98q109 -74 168 -98q84 -35 193 -35q221 0 378.5 150.5t157.5 371.5v1321h-358v-1260q0 -74 -46 -118.5t-120 -44.5t-119 46t-45 120v1257h-389v-1260q0 -72 -46 -117.5t-118 -45.5q-74 0 -120 46t-46 120 v1257h-387v-1321z" />
<glyph unicode="X" horiz-adv-x="1572" d="M102 156v-463h361v266q0 317 340 342q342 -25 342 -342v-266h360v463q0 164 -78 274q-49 72 -206 195q154 123 204 194q80 111 80 275v442h-362v-246q0 -317 -338 -344q-342 27 -342 344v246h-361v-442q0 -164 78 -275q49 -72 205 -194l-100 -80q-183 -145 -183 -389z " />
<glyph unicode="Y" horiz-adv-x="1480" d="M102 1106q0 -227 146 -354q119 -102 360 -152l2 -907h367l2 907q137 33 211 66q133 59 206.5 175.5t73.5 264.5v430h-348q-2 -221 -6 -262q-31 -291 -330 -313q-336 25 -335 337v238h-349v-430z" />
<glyph unicode="Z" horiz-adv-x="1595" d="M102 242v-547l1432 -2v379h-973v170q0 172 238 172q23 0 69.5 -2t69.5 -2h49q231 0 389 165.5t158 397.5v563h-1432v-381h988v-168q0 -109 -80 -145q-49 -23 -168 -23h-178q-231 0 -396.5 -173t-165.5 -404z" />
<glyph unicode="[" horiz-adv-x="940" d="M102 326q0 -270 123 -441q137 -193 400 -192h258v360h-60q-147 0 -245.5 95.5t-98.5 242.5v447q0 147 98.5 242.5t245.5 95.5h60v360h-258q-223 0 -359 -143q-164 -172 -164 -490v-577z" />
<glyph unicode="\" horiz-adv-x="1425" d="M164 1536l956 -1843h338l-956 1843h-338z" />
<glyph unicode="]" horiz-adv-x="940" d="M104 55v-360h256q260 0 400 192q125 170 125 441v575q0 272 -123 443q-139 193 -402 192h-256v-362h60q147 0 245.5 -95.5t98.5 -240.5v-449q0 -145 -98.5 -240.5t-245.5 -95.5h-60z" />
<glyph unicode="_" horiz-adv-x="1841" d="M0 -328h1972v-96h-1972v96z" />
<glyph unicode="a" horiz-adv-x="1249" d="M102 -307h361v336h328v-336h389v1321q0 221 -158 371.5t-381 150.5t-381 -150.5t-158 -371.5v-1321zM463 389v563q0 72 46 118t118 46q74 0 119 -46t45 -120v-561h-328z" />
<glyph unicode="b" horiz-adv-x="1949" d="M102 -307h1368q229 0 386 165t157 394t-156.5 394t-386.5 165h-964v725h-404v-1843zM506 72v331h899q76 0 122 -45t46 -120q0 -76 -46 -121t-122 -45h-899z" />
<glyph unicode="c" horiz-adv-x="1466" d="M102 326q0 -270 123 -441q137 -193 400 -192h884v360h-686q-147 0 -245.5 95.5t-98.5 242.5v447q0 147 98.5 242.5t245.5 95.5h686v360h-884q-223 0 -359 -143q-164 -172 -164 -490v-577z" />
<glyph unicode="d" horiz-adv-x="2086" d="M102 252q0 -231 157 -395t386 -164h1368v1843h-403v-725h-965q-229 0 -386 -164t-157 -395zM543 238q0 76 46 120.5t122 44.5h899v-331h-901q-74 0 -120 46t-46 120z" />
<glyph unicode="e" horiz-adv-x="1523" d="M102 246q0 -229 155 -391t382 -162h868v373h-805q-74 0 -119.5 46t-45.5 119q0 76 46 121t122 45h802v406h-805q-74 0 -119.5 46t-45.5 120q0 76 46 121t122 45h802v401h-868q-227 0 -382 -162t-155 -391q0 -106 37 -197q27 -66 97 -172q-70 -106 -97 -172 q-37 -90 -37 -196z" />
<glyph unicode="f" horiz-adv-x="1474" d="M102 -307h435l2 704h970v404h-970v166q0 74 46 120t120 46h804v403h-868q-227 0 -383 -163t-156 -392v-1288z" />
<glyph unicode="g" horiz-adv-x="2037" d="M102 113v-420h1313q233 0 394 168t161 403l-4 1272h-1335q-221 0 -375 -161t-154 -384q0 -225 153 -385t376 -160h1003v-167q0 -76 -47 -121t-123 -45h-1362zM528 1006q0 74 46.5 118.5t119.5 44.5h936v-329h-936q-74 0 -120 46t-46 120z" />
<glyph unicode="h" horiz-adv-x="1497" d="M102 -307h361v592q47 260 332 280q340 -25 340 -342v-530h354v727q0 258 -191 395q-168 121 -434 121h-139q-193 0 -262 -119v719h-361v-1843z" />
<glyph unicode="i" horiz-adv-x="538" d="M102 -307h363v1843h-363v-1843z" />
<glyph unicode="j" horiz-adv-x="1247" d="M102 215q0 -221 158 -371.5t381 -150.5t381 150.5t158 371.5v1321h-361v-1260q0 -72 -46 -117.5t-118 -45.5q-74 0 -120 46t-46 120v133h-387v-197z" />
<glyph unicode="k" horiz-adv-x="1544" d="M102 -307h336v764h494q113 0 182.5 -65.5t69.5 -176.5v-520h323v526q0 115 -47 213q-33 72 -121 182q88 111 121 183q47 98 47 215v246h-323v-240q0 -113 -70 -178.5t-182 -65.5h-494v760h-336v-1843z" />
<glyph unicode="l" horiz-adv-x="1134" d="M102 266q0 -238 161 -405.5t396 -167.5h527v325h-520q-111 0 -174 68q-70 72 -70 180v1270h-320v-1270z" />
<glyph unicode="m" horiz-adv-x="1966" d="M102 -307h361v1259q0 72 46 118t118 46q74 0 119 -46t45 -120v-1257h391v1259q0 72 46 118t118 46q74 0 118.5 -46t44.5 -120v-1257h387v1321q0 221 -157.5 371.5t-378.5 150.5q-109 0 -193 -35q-59 -25 -168 -98q-104 74 -165 98q-86 35 -193 35q-223 0 -381 -150.5 t-158 -371.5v-1321z" />
<glyph unicode="n" horiz-adv-x="1247" d="M100 -315h361v1259q0 72 46 118t118 46q74 0 118.5 -46t44.5 -120v-1257h390v1321q0 221 -158 371.5t-381 150.5t-381 -150.5t-158 -371.5v-1321z" />
<glyph unicode="o" horiz-adv-x="1249" d="M102 217q0 -221 159 -372.5t382 -151.5q225 0 383 150.5t158 373.5v795q0 221 -159 372.5t-382 151.5t-382 -151.5t-159 -372.5v-795zM465 279v671q0 72 46 118t118 46q74 0 120 -46t46 -120v-667q0 -74 -46.5 -120t-119.5 -46q-74 0 -119 45t-45 119z" />
<glyph unicode="p" horiz-adv-x="1951" d="M102 -307h404v725h964q229 0 386 165t157 394t-156.5 394t-386.5 165h-1368v-1843zM506 825v332h899q76 0 122 -45t46 -121t-46 -121t-122 -45h-899z" />
<glyph unicode="q" horiz-adv-x="2086" d="M102 977q0 -231 157 -395t386 -164h965v-725h403v1843h-1368q-229 0 -386 -164t-157 -395zM543 991q0 74 46 120t120 46h901v-332h-899q-76 0 -122 45t-46 121z" />
<glyph unicode="r" horiz-adv-x="1431" d="M102 -307h437v1274q0 76 46 121t122 45h806v403h-872q-227 0 -383 -163t-156 -392v-1288z" />
<glyph unicode="s" horiz-adv-x="1568" d="M102 74v-381h871q231 0 389 166t158 397t-158 397t-389 166h-178l-82 2q-74 2 -120 47t-46 119q0 76 45 122t121 46h807v381h-871q-231 0 -389 -166t-158 -397t158 -397t389 -166h49q20 0 63.5 2t65.5 2q248 0 248 -172q0 -76 -46 -122t-122 -46h-805z" />
<glyph unicode="t" horiz-adv-x="1462" d="M102 215q0 -262 191 -399q168 -123 440 -123h139q272 0 441 121q193 139 192 401v94h-372q-55 -221 -330 -239q-340 25 -340 342v567h772v362h-772v195h-361v-1321z" />
<glyph unicode="u" horiz-adv-x="1247" d="M102 215q0 -221 158 -371.5t381 -150.5t381 150.5t158 371.5v1321h-361v-1260q0 -72 -46 -117.5t-118 -45.5q-74 0 -120 46t-46 120v1257h-387v-1321z" />
<glyph unicode="v" horiz-adv-x="1447" d="M102 215q0 -221 158 -371.5t381 -150.5q225 0 379 152.5t160 379.5l243 1311h-358l-246 -1272q-4 -70 -49 -110.5t-115 -40.5q-74 0 -120 46t-46 120v1257h-387v-1321z" />
<glyph unicode="w" horiz-adv-x="1964" d="M102 215q0 -221 158 -371.5t381 -150.5q106 0 193 35q61 25 165 98q109 -74 168 -98q84 -35 193 -35q221 0 378.5 150.5t157.5 371.5v1321h-358v-1260q0 -74 -46 -118.5t-120 -44.5t-119 46t-45 120v1257h-389v-1260q0 -72 -46 -117.5t-118 -45.5q-74 0 -120 46t-46 120 v1257h-387v-1321z" />
<glyph unicode="x" horiz-adv-x="1241" d="M102 231v-538h357v477q0 72 46 118t118 46t117.5 -46t45.5 -118v-477h383v538q0 115 -47 209q-31 59 -121 174q90 115 121 174q47 94 47 209v539h-356v-477q0 -72 -46 -118t-118 -46t-118 46t-46 118v477h-383v-539q0 -115 48 -209q31 -59 120 -174q-90 -115 -120 -174 q-48 -94 -48 -209z" />
<glyph unicode="y" horiz-adv-x="1230" d="M102 997q0 -317 353 -489v-815h366v817q348 172 348 487v539h-356v-477q0 -72 -46 -118t-118 -46t-118 46t-46 118v477h-383v-539z" />
<glyph unicode="z" horiz-adv-x="1595" d="M102 242v-547l1432 -2v379h-973v170q0 172 238 172q23 0 69.5 -2t69.5 -2h49q231 0 389 165.5t158 397.5v563h-1432v-381h988v-168q0 -109 -80 -145q-49 -23 -168 -23h-178q-231 0 -396.5 -173t-165.5 -404z" />
<glyph unicode="{" horiz-adv-x="940" d="M102 326q0 -270 123 -441q137 -193 400 -192h258v360h-60q-147 0 -245.5 95.5t-98.5 242.5v447q0 147 98.5 242.5t245.5 95.5h60v360h-258q-223 0 -359 -143q-164 -172 -164 -490v-577z" />
<glyph unicode="|" horiz-adv-x="532" d="M102 -307h363v1843h-363v-1843z" />
<glyph unicode="}" horiz-adv-x="1050" d="M2 158h162q139 0 203 102q39 61 39 131v449q0 70 -39 131q-63 102 -203 102h-162v567h358q303 0 474 -221q154 -203 153 -516v-575q0 -313 -153 -514q-168 -221 -474 -222h-358v566z" />
<glyph unicode="~" horiz-adv-x="1841" d="M0 1747v96h1972v-96h-1972z" />
<glyph unicode="&#xa1;" horiz-adv-x="526" d="M92 1743v108h363v-108h-363zM96 -303h363v1843h-363v-1843z" />
<glyph unicode="&#xa9;" horiz-adv-x="2084" d="M0 614q0 428 298 726t726 298t726 -298t298 -726t-298 -726t-726 -298t-726 298t-298 726zM262 614q0 -317 222.5 -539t539.5 -222t539.5 222t222.5 539t-222.5 539.5t-539.5 222.5t-539.5 -222.5t-222.5 -539.5zM528 461v307q0 168 82 274q88 117 252 117h524v-301h-419 q-55 0 -92 -35t-37 -90v-237q0 -55 36.5 -90t92.5 -35h419v-301h-524q-164 0 -252 116q-82 107 -82 275z" />
<glyph unicode="&#xaa;" horiz-adv-x="1249" d="M102 -307h361v336h328v-336h389v1321q0 221 -158 371.5t-381 150.5t-381 -150.5t-158 -371.5v-1321zM463 389v563q0 72 46 118t118 46q74 0 119 -46t45 -120v-561h-328z" />
<glyph unicode="&#xad;" horiz-adv-x="1622" d="M102 403h1444v361h-1444v-361z" />
<glyph unicode="&#xae;" horiz-adv-x="2084" d="M0 614q0 428 298 726t726 298t726 -298t298 -726t-298 -726t-726 -298t-726 298t-298 726zM262 614q0 -317 222.5 -539t539.5 -222t539.5 222t222.5 539t-222.5 539.5t-539.5 222.5t-539.5 -222.5t-222.5 -539.5zM535 139v951h679q125 0 211 -88.5t86 -215.5 q0 -96 -51 -172q51 -74 51 -172l2 -303h-296l-3 312q0 29 -28 28h-367v-340h-284zM819 762h365q31 0 30 31q0 29 -28 28h-367v-59z" />
<glyph unicode="&#xb2;" d="M74 256q0 -231 158.5 -397t388.5 -166h870v381h-807q-74 0 -120 47t-46 121q0 172 240 172q23 0 67.5 -2t67.5 -2h51q231 0 389 165.5t158 397.5q0 231 -157.5 397t-389.5 166h-870v-381h805q76 0 122 -46t46 -122q0 -109 -80 -145q-49 -23 -168 -23h-178 q-229 0 -388 -166t-159 -397z" />
<glyph unicode="&#xb3;" d="M80 66v-373h868q227 0 382 161.5t155 391.5q0 109 -35 196q-27 68 -98 172q72 104 98 172q35 88 35 197q0 229 -154.5 391t-382.5 162h-868v-401h805q76 0 121 -45.5t45 -120.5q0 -76 -45 -121t-121 -45h-805v-406h805q76 0 121 -45t45 -121t-45 -120.5t-121 -44.5h-805z " />
<glyph unicode="&#xb9;" d="M545 1147q156 -57 155 -191v-1263h322v1270q0 221 -127 383q-133 172 -350 188v-387z" />
<glyph unicode="&#xba;" horiz-adv-x="1249" d="M102 217q0 -221 159 -372.5t382 -151.5q225 0 383 150.5t158 373.5v795q0 221 -159 372.5t-382 151.5t-382 -151.5t-159 -372.5v-795zM465 279v671q0 72 46 118t118 46q74 0 120 -46t46 -120v-667q0 -74 -46.5 -120t-119.5 -46q-74 0 -119 45t-45 119z" />
<glyph unicode="&#xbf;" horiz-adv-x="1546" d="M102 250q0 -236 157 -399.5t390 -163.5h871v381h-805q-74 0 -121 47t-47 121q0 109 80 145q49 23 168 22h178q233 0 391 165t158 401v561h-449v-506q0 -158 -119 -197q-45 -14 -254 -14h-51q-233 0 -390 -163.5t-157 -399.5zM1069 1731v108h457v-108h-457z" />
<glyph unicode="&#xc1;" horiz-adv-x="1574" d="M-12 1741l1517 190l115 -102l-1518 -191zM102 -307h361v297h682v-297h360v1321q0 262 -192 401q-168 121 -441 121h-139q-268 0 -440 -125q-190 -139 -191 -397v-1321zM463 352l2 465q2 319 338 342q342 -25 342 -342v-465h-682z" />
<glyph unicode="&#xc3;" horiz-adv-x="1574" d="M-184 1659v96h1972v-96h-1972zM102 -307h361v297h682v-297h360v1321q0 262 -192 401q-168 121 -441 121h-139q-268 0 -440 -125q-190 -139 -191 -397v-1321zM463 352l2 465q2 319 338 342q342 -25 342 -342v-465h-682z" />
<glyph unicode="&#xc4;" horiz-adv-x="1574" d="M0 1645v301h555v-301h-555zM102 -307h361v297h682v-297h360v1321q0 262 -192 401q-168 121 -441 121h-139q-268 0 -440 -125q-190 -139 -191 -397v-1321zM463 352l2 465q2 319 338 342q342 -25 342 -342v-465h-682zM936 1647v301h555v-301h-555z" />
<glyph unicode="&#xc9;" horiz-adv-x="1515" d="M-12 1741l1517 190l115 -102l-1518 -191zM102 246q0 -229 155 -391t382 -162h868v373h-805q-74 0 -119.5 46t-45.5 119q0 76 46 121t122 45h802v406h-805q-74 0 -119.5 46t-45.5 120q0 76 46 121t122 45h802v401h-868q-227 0 -382 -162t-155 -391q0 -106 37 -197 q27 -66 97 -172q-70 -106 -97 -172q-37 -90 -37 -196z" />
<glyph unicode="&#xcb;" horiz-adv-x="1515" d="M102 246q0 -229 155 -391t382 -162h868v373h-805q-74 0 -119.5 46t-45.5 119q0 76 46 121t122 45h802v406h-805q-74 0 -119.5 46t-45.5 120q0 76 46 121t122 45h802v401h-868q-227 0 -382 -162t-155 -391q0 -106 37 -197q27 -66 97 -172q-70 -106 -97 -172 q-37 -90 -37 -196zM121 1796l2 53h350l2 -53l-2 -55h-350zM1161 1743v108h350v-108h-350z" />
<glyph unicode="&#xcd;" horiz-adv-x="540" d="M-12 1815l477 59l115 -102l-478 -60zM102 -307h363v1843h-363v-1843z" />
<glyph unicode="&#xcf;" horiz-adv-x="737" d="M-102 -512v2253h772v-2253h-772zM-102 1645v301h393v-301h-393zM0 1741l53 55l-53 53h188l-55 -53l55 -55h-188zM102 -307h363v1843h-363v-1843zM260 1647v301h406v-301h-406zM362 1743l54 55l-54 53h201l-55 -53l55 -55h-201z" />
<glyph unicode="&#xd1;" horiz-adv-x="1929" d="M102 -307h361v1259q0 72 46 118t118 46q74 0 119 -46t45 -120l2 -735q0 -221 157.5 -371.5t380.5 -150.5t381 150.5t158 371.5v1321h-361v-1260q0 -72 -46 -117.5t-117 -45.5q-74 0 -119 46t-45 120l-2 735q0 221 -158 371.5t-381 150.5t-381 -150.5t-158 -371.5v-1321z M111 1741v108h1769v-108h-1769z" />
<glyph unicode="&#xd3;" horiz-adv-x="1572" d="M96 1800l1266 191l115 -103l-1266 -190zM102 215q0 -262 193 -399q170 -123 440 -123h142q272 0 440 123q190 137 190 399v799q0 262 -192 401q-168 121 -441 121h-141q-266 0 -438 -125q-193 -141 -193 -397v-799zM463 401l2 414q0 160 90 252t248 92h6q154 0 246 -89 t92 -243l-2 -413q-2 -322 -338 -344q-158 10 -248 90q-96 85 -96 241z" />
<glyph unicode="&#xd5;" horiz-adv-x="1572" d="M-182 1659v96h1972v-96h-1972zM102 215q0 -262 193 -399q170 -123 440 -123h142q272 0 440 123q190 137 190 399v799q0 262 -192 401q-168 121 -441 121h-141q-266 0 -438 -125q-193 -141 -193 -397v-799zM463 401l2 414q0 160 90 252t248 92h14q154 0 242 -89t88 -243 l-2 -413q-2 -322 -338 -344q-158 10 -248 90q-96 85 -96 241z" />
<glyph unicode="&#xda;" horiz-adv-x="1572" d="M-12 1817l1517 190l115 -102l-1518 -191zM102 215q0 -262 193 -401q168 -121 440 -121h142q313 0 485 164q143 135 143 358v1321h-360v-1124q0 -317 -340 -342q-342 25 -342 342v1124h-361v-1321z" />
<glyph unicode="&#xe1;" horiz-adv-x="1245" d="M-12 1741l1192 145l114 -102l-1192 -146zM102 -307h361v336h328v-336h389v1321q0 221 -158 371.5t-381 150.5t-381 -150.5t-158 -371.5v-1321zM463 389v563q0 72 46 118t118 46q74 0 119 -46t45 -120v-561h-328z" />
<glyph unicode="&#xe3;" horiz-adv-x="1249" d="M-344 1659v96h1972v-96h-1972zM102 -307h361v336h328v-336h389v1321q0 221 -158 371.5t-381 150.5t-381 -150.5t-158 -371.5v-1321zM463 389v563q0 72 46 118t118 46q74 0 119 -46t45 -120v-561h-328z" />
<glyph unicode="&#xe9;" horiz-adv-x="1515" d="M-12 1741l1517 190l115 -102l-1518 -191zM102 246q0 -229 155 -391t382 -162h868v373h-805q-74 0 -119.5 46t-45.5 119q0 76 46 121t122 45h802v406h-805q-74 0 -119.5 46t-45.5 120q0 76 46 121t122 45h802v401h-868q-227 0 -382 -162t-155 -391q0 -106 37 -197 q27 -66 97 -172q-70 -106 -97 -172q-37 -90 -37 -196z" />
<glyph unicode="&#xeb;" horiz-adv-x="1515" d="M102 246q0 -229 155 -391t382 -162h868v373h-805q-74 0 -119.5 46t-45.5 119q0 76 46 121t122 45h802v406h-805q-74 0 -119.5 46t-45.5 120q0 76 46 121t122 45h802v401h-868q-227 0 -382 -162t-155 -391q0 -106 37 -197q27 -66 97 -172q-70 -106 -97 -172 q-37 -90 -37 -196zM102 1741v108h351l2 -53l-2 -55h-351zM1157 1796l4 55h350l-6 -53l6 -55h-350z" />
<glyph unicode="&#xed;" horiz-adv-x="540" d="M-12 1815l477 59l115 -102l-478 -60zM102 -307h363v1843h-363v-1843z" />
<glyph unicode="&#xef;" horiz-adv-x="737" d="M-102 -512v2253h772v-2253h-772zM-102 1645v301h393v-301h-393zM0 1741l53 55l-53 53h188l-55 -53l55 -55h-188zM102 -307h363v1843h-363v-1843zM260 1647v301h406v-301h-406zM362 1743l54 55l-54 53h201l-55 -53l55 -55h-201z" />
<glyph unicode="&#xf1;" horiz-adv-x="1243" d="M94 1741v108h1096v-108h-1096zM100 -315h361v1259q0 72 46 118t118 46q74 0 118.5 -46t44.5 -120v-1257h390v1321q0 221 -158 371.5t-381 150.5t-381 -150.5t-158 -371.5v-1321z" />
<glyph unicode="&#xf3;" horiz-adv-x="1247" d="M102 217q0 -221 159 -372.5t382 -151.5q225 0 383 150.5t158 373.5v795q0 221 -159 372.5t-382 151.5t-382 -151.5t-159 -372.5v-795zM111 1741l952 145l115 -102l-953 -146zM465 279v671q0 72 46 118t118 46q74 0 120 -46t46 -120v-667q0 -74 -46.5 -120t-119.5 -46 q-74 0 -119 45t-45 119z" />
<glyph unicode="&#xf5;" horiz-adv-x="1249" d="M-344 1659v96h1972v-96h-1972zM102 217q0 -221 159 -372.5t382 -151.5q225 0 383 150.5t158 373.5v795q0 221 -159 372.5t-382 151.5t-382 -151.5t-159 -372.5v-795zM465 279v671q0 72 46 118t118 46q74 0 120 -46t46 -120v-667q0 -74 -46.5 -120t-119.5 -46 q-74 0 -119 45t-45 119z" />
<glyph unicode="&#xf6;" horiz-adv-x="1572" d="M82 1741l2 55l-2 53h350v-108h-350zM102 215q0 -262 193 -399q170 -123 440 -123h142q272 0 440 123q190 137 190 399v799q0 262 -192 401q-168 121 -441 121h-141q-266 0 -438 -125q-193 -141 -193 -397v-799zM463 401l2 414q0 160 90 252t248 92h6q154 0 246 -89 t92 -243l-2 -413q-2 -322 -338 -344q-158 10 -248 90q-96 85 -96 241zM1120 1743v108h350l-2 -53l2 -55h-350z" />
<glyph unicode="&#xfa;" horiz-adv-x="1572" d="M-12 1843l1517 191l115 -103l-1518 -190zM102 215q0 -262 193 -401q168 -121 440 -121h142q313 0 485 164q143 135 143 358v1321h-360v-1124q0 -317 -340 -342q-342 25 -342 342v1124h-361v-1321z" />
<glyph unicode="&#xfc;" horiz-adv-x="1570" d="M102 215q0 -262 193 -401q168 -121 440 -121h142q313 0 485 164q143 135 143 358v1321h-360v-1124q0 -317 -340 -342q-342 25 -342 342v1124h-361v-1321zM102 1741v108h351l2 -53l-2 -55h-351zM1139 1796l2 55h350v-108h-350z" />
<glyph unicode="&#x152;" horiz-adv-x="3088" d="M1675 246q0 -229 155 -391t382 -162h868v373h-805q-74 0 -119.5 46t-45.5 119q0 76 46 121t122 45h802v406h-805q-74 0 -119.5 46t-45.5 120q0 76 46 121t122 45h802v401h-868q-227 0 -382 -162t-155 -391q0 -106 37 -197q27 -66 97 -172q-70 -106 -97 -172 q-37 -90 -37 -196zM102 215q0 -262 193 -399q170 -123 440 -123h142q272 0 440 123q190 137 190 399v799q0 262 -192 401q-168 121 -441 121h-141q-266 0 -438 -125q-193 -141 -193 -397v-799zM463 401l2 414q0 160 90 252t248 92h14q154 0 242 -89t88 -243l-2 -413 q-2 -322 -338 -344q-158 10 -248 90q-96 85 -96 241z" />
<glyph unicode="&#x153;" horiz-adv-x="2772" d="M1351 246q0 -229 155 -391t382 -162h868v373h-805q-74 0 -119.5 46t-45.5 119q0 76 46 121t122 45h802v406h-805q-74 0 -119.5 46t-45.5 120q0 76 46 121t122 45h802v401h-868q-227 0 -382 -162t-155 -391q0 -106 37 -197q27 -66 97 -172q-70 -106 -97 -172 q-37 -90 -37 -196zM102 217q0 -221 159 -372.5t382 -151.5q225 0 383 150.5t158 373.5v795q0 221 -159 372.5t-382 151.5t-382 -151.5t-159 -372.5v-795zM465 279v671q0 72 46 118t118 46q74 0 120 -46t46 -120v-667q0 -74 -46.5 -120t-119.5 -46q-74 0 -119 45t-45 119z " />
<glyph unicode="&#x2dc;" horiz-adv-x="624" d="M-987 123v96h1972v-96h-1972z" />
<glyph unicode="&#x2000;" horiz-adv-x="1015" />
<glyph unicode="&#x2001;" horiz-adv-x="2033" />
<glyph unicode="&#x2002;" horiz-adv-x="1015" />
<glyph unicode="&#x2003;" horiz-adv-x="2033" />
<glyph unicode="&#x2004;" horiz-adv-x="677" />
<glyph unicode="&#x2005;" horiz-adv-x="507" />
<glyph unicode="&#x2006;" horiz-adv-x="337" />
<glyph unicode="&#x2007;" horiz-adv-x="337" />
<glyph unicode="&#x2008;" horiz-adv-x="253" />
<glyph unicode="&#x2009;" horiz-adv-x="405" />
<glyph unicode="&#x200a;" horiz-adv-x="112" />
<glyph unicode="&#x2010;" horiz-adv-x="1622" d="M102 403h1444v361h-1444v-361z" />
<glyph unicode="&#x2011;" horiz-adv-x="1622" d="M102 403h1444v361h-1444v-361z" />
<glyph unicode="&#x2012;" horiz-adv-x="1622" d="M102 403h1444v361h-1444v-361z" />
<glyph unicode="&#x2013;" horiz-adv-x="1024" d="M205 512v205h614v-205h-614z" />
<glyph unicode="&#x2014;" horiz-adv-x="2048" d="M205 512v205h1638v-205h-1638z" />
<glyph unicode="&#x2019;" horiz-adv-x="356" d="M104 1128h160v631h-160v-631z" />
<glyph unicode="&#x201c;" horiz-adv-x="915" d="M104 1128h160v631h-160v-631zM664 1130h159v631h-159v-631z" />
<glyph unicode="&#x201d;" horiz-adv-x="915" d="M104 1128h160v631h-160v-631zM664 1130h159v631h-159v-631z" />
<glyph unicode="&#x2026;" horiz-adv-x="1665" d="M1208 66v-373h373v373h-373zM653 66v-373h373v373h-373zM98 66v-373h373v373h-373z" />
<glyph unicode="&#x202f;" horiz-adv-x="405" />
<glyph unicode="&#x2039;" horiz-adv-x="978" d="M115 608l477 -921h338l-477 921l477 922h-338z" />
<glyph unicode="&#x203a;" horiz-adv-x="1050" d="M168 -307h338l477 921l-477 922h-338l477 -922z" />
<glyph unicode="&#x205f;" horiz-adv-x="507" />
<glyph unicode="&#x2122;" horiz-adv-x="3457" d="M1593 -307h361v1259q0 72 46 118t118 46q74 0 119 -46t45 -120v-1257h391v1259q0 72 46 118t118 46q74 0 118.5 -46t44.5 -120v-1257h387v1321q0 221 -157.5 371.5t-378.5 150.5q-109 0 -193 -35q-59 -25 -168 -98q-104 74 -165 98q-86 35 -193 35q-223 0 -381 -150.5 t-158 -371.5v-1321zM102 1116h508v-1423h387v1423h504v420h-1399v-420z" />
<glyph unicode="&#xe000;" horiz-adv-x="1535" d="M0 1535h1535v-1535h-1535v1535z" />
<glyph unicode="&#xfb01;" horiz-adv-x="2013" d="M1577 -307h363v1843h-363v-1843zM102 -307h435l2 704h970v404h-970v166q0 74 46 120t120 46h804v403h-868q-227 0 -383 -163t-156 -392v-1288z" />
<glyph unicode="&#xfb02;" horiz-adv-x="2609" d="M1577 266q0 -238 161 -405.5t396 -167.5h527v325h-520q-111 0 -174 68q-70 72 -70 180v1270h-320v-1270zM102 -307h435l2 704h970v404h-970v166q0 74 46 120t120 46h804v403h-868q-227 0 -383 -163t-156 -392v-1288z" />
<glyph unicode="&#xfb03;" horiz-adv-x="3487" d="M3051 -307h363v1843h-363v-1843zM1577 -307h435l2 704h970v404h-970v166q0 74 46 120t120 46h804v403h-868q-227 0 -383 -163t-156 -392v-1288zM102 -307h435l2 704h970v404h-970v166q0 74 46 120t120 46h804v403h-868q-227 0 -383 -163t-156 -392v-1288z" />
<glyph unicode="&#xfb04;" horiz-adv-x="4083" d="M3051 266q0 -238 161 -405.5t396 -167.5h527v325h-520q-111 0 -174 68q-70 72 -70 180v1270h-320v-1270zM1577 -307h435l2 704h970v404h-970v166q0 74 46 120t120 46h804v403h-868q-227 0 -383 -163t-156 -392v-1288zM102 -307h435l2 704h970v404h-970v166q0 74 46 120 t120 46h804v403h-868q-227 0 -383 -163t-156 -392v-1288z" />
</font>
</defs>
</svg>
